<?xml version="1.0" standalone="no"?>
<!DOCTYPE svg PUBLIC "-//W3C//DTD SVG 1.1//EN" "http://www.w3.org/Graphics/SVG/1.1/DTD/svg11.dtd" >
<svg>
<metadata>
Created by FontForge 20090622 at Sun Jul 31 01:08:51 2016
 By deploy user
Copyright (c) 2015 by Hubert &#38; Fischer. All rights reserved. Hebrew characters (c) 2016 by Meir Sadan.
</metadata>
<defs>
<font id="Rubik-Medium" horiz-adv-x="0" >
  <font-face 
    font-family="Rubik"
    font-weight="500"
    font-stretch="normal"
    units-per-em="1000"
    panose-1="2 0 6 4 0 0 0 2 0 4"
    ascent="800"
    descent="-200"
    x-height="520"
    cap-height="700"
    bbox="-263 -282 1174 910"
    underline-thickness="50"
    underline-position="-25"
    unicode-range="U+000D-U+FB4B"
  />
<missing-glyph horiz-adv-x="290" 
 />
    <glyph glyph-name="f_f" unicode="ff" horiz-adv-x="762" 
d="M237 8q-8 -8 -19 -8h-76q-11 0 -19 8t-8 19v373h-66q-11 0 -19 8t-8 19v66q0 11 8 19t19 8h66v45q0 93 51.5 134t146.5 41h81q11 0 19 -8t8 -19v-66q0 -11 -8 -19t-19 -8h-71q-40 0 -59 -14.5t-19 -50.5v-35h205v45q0 93 51.5 134t146.5 41h81q11 0 19 -8t8 -19v-66
q0 -11 -8 -19t-19 -8h-71q-40 0 -59 -14.5t-19 -50.5v-35h139q11 0 19 -8t8 -19v-66q0 -11 -8 -19t-19 -8h-139v-373q0 -11 -8 -19t-19 -8h-76q-11 0 -19 8t-8 19v373h-205v-373q0 -11 -8 -19z" />
    <glyph glyph-name="f_f_i" unicode="ffi" horiz-adv-x="975" 
d="M898 8q-8 -8 -19 -8h-76q-11 0 -19 8t-8 19v373h-196v-373q0 -11 -8 -19t-19 -8h-76q-11 0 -19 8t-8 19v373h-205v-373q0 -11 -8 -19t-19 -8h-76q-11 0 -19 8t-8 19v373h-66q-11 0 -19 8t-8 19v66q0 11 8 19t19 8h66v45q0 93 51.5 134t146.5 41h81q11 0 19 -8t8 -19v-66
q0 -11 -8 -19t-19 -8h-71q-40 0 -59 -14.5t-19 -50.5v-35h205v45q0 93 51.5 134t146.5 41h231q11 0 19 -8t8 -19v-66q0 -11 -8 -19t-19 -8h-221q-40 0 -59 -14.5t-19 -50.5v-35h299q11 0 19 -8t8 -19v-466q0 -11 -8 -19z" />
    <glyph glyph-name="f_f_l" unicode="ffl" horiz-adv-x="984" 
d="M907 8q-8 -8 -19 -8h-76q-11 0 -19 8t-8 19v373h-205v-373q0 -11 -8 -19t-19 -8h-76q-11 0 -19 8t-8 19v373h-205v-373q0 -11 -8 -19t-19 -8h-76q-11 0 -19 8t-8 19v373h-66q-11 0 -19 8t-8 19v66q0 11 8 19t19 8h66v45q0 93 51.5 134t146.5 41h81q11 0 19 -8t8 -19v-66
q0 -11 -8 -19t-19 -8h-71q-40 0 -59 -14.5t-19 -50.5v-35h205v45q0 93 51.5 134t146.5 41h81q11 0 19 -8t8 -19v-66q0 -11 -8 -19t-19 -8h-71q-40 0 -59 -14.5t-19 -50.5v-35h205v193q0 11 8 19t19 8h76q11 0 19 -8t8 -19v-686q0 -11 -8 -19z" />
    <glyph glyph-name="fi" unicode="fi" horiz-adv-x="640" 
d="M563 8q-8 -8 -19 -8h-76q-11 0 -19 8t-8 19v373h-196v-373q0 -11 -8 -19t-19 -8h-76q-11 0 -19 8t-8 19v373h-66q-11 0 -19 8t-8 19v66q0 11 8 19t19 8h66v45q0 93 51.5 134t146.5 41h231q11 0 19 -8t8 -19v-66q0 -11 -8 -19t-19 -8h-221q-40 0 -59 -14.5t-19 -50.5v-35
h299q11 0 19 -8t8 -19v-466q0 -11 -8 -19z" />
    <glyph glyph-name="fl" unicode="fl" horiz-adv-x="649" 
d="M572 8q-8 -8 -19 -8h-76q-11 0 -19 8t-8 19v373h-205v-373q0 -11 -8 -19t-19 -8h-76q-11 0 -19 8t-8 19v373h-66q-11 0 -19 8t-8 19v66q0 11 8 19t19 8h66v45q0 93 51.5 134t146.5 41h81q11 0 19 -8t8 -19v-66q0 -11 -8 -19t-19 -8h-71q-40 0 -59 -14.5t-19 -50.5v-35
h205v193q0 11 8 19t19 8h76q11 0 19 -8t8 -19v-686q0 -11 -8 -19z" />
    <glyph glyph-name=".notdef" horiz-adv-x="290" 
 />
    <glyph glyph-name=".null" 
 />
    <glyph glyph-name="nonmarkingreturn" unicode="&#xd;" horiz-adv-x="290" 
 />
    <glyph glyph-name="space" unicode=" " horiz-adv-x="228" 
 />
    <glyph glyph-name="A" unicode="A" horiz-adv-x="704" 
d="M430.5 692q8.5 -8 14.5 -26l245 -632q1 -3 1 -7q0 -11 -8 -19t-19 -8h-72q-30 0 -39 25l-43 111h-316l-43 -111q-9 -25 -39 -25h-72q-11 0 -19 8t-8 19q0 4 1 7l245 632q6 18 14.5 26t23.5 8h110q15 0 23.5 -8zM352 546l-110 -285h220z" />
    <glyph glyph-name="Aacute" unicode="&#xc1;" horiz-adv-x="704" 
d="M430.5 692q8.5 -8 14.5 -26l245 -632q1 -3 1 -7q0 -11 -8 -19t-19 -8h-72q-30 0 -39 25l-43 111h-316l-43 -111q-9 -25 -39 -25h-72q-11 0 -19 8t-8 19q0 4 1 7l245 632q6 18 14.5 26t23.5 8h110q15 0 23.5 -8zM352 546l-110 -285h220zM395 896.5q7 3.5 19 3.5h100
q9 0 14 -5.5t5 -14.5q0 -7 -5 -12l-123 -101q-11 -9 -19.5 -13t-22.5 -4h-60q-16 0 -16 16q0 6 5 13l85 102q11 12 18 15.5z" />
    <glyph glyph-name="Abreve" unicode="&#x102;" horiz-adv-x="704" 
d="M430.5 692q8.5 -8 14.5 -26l245 -632q1 -3 1 -7q0 -11 -8 -19t-19 -8h-72q-30 0 -39 25l-43 111h-316l-43 -111q-9 -25 -39 -25h-72q-11 0 -19 8t-8 19q0 4 1 7l245 632q6 18 14.5 26t23.5 8h110q15 0 23.5 -8zM352 546l-110 -285h220zM208 894.5q5 5.5 14 5.5h57
q9 0 14 -5.5t5 -13.5q0 -23 14 -36.5t40 -13.5t40 13.5t14 36.5q0 8 5 13.5t14 5.5h57q9 0 14 -5.5t5 -13.5q0 -55 -35.5 -95.5t-113.5 -40.5t-113.5 40.5t-35.5 95.5q0 8 5 13.5z" />
    <glyph glyph-name="Acircumflex" unicode="&#xc2;" horiz-adv-x="704" 
d="M430.5 692q8.5 -8 14.5 -26l245 -632q1 -3 1 -7q0 -11 -8 -19t-19 -8h-72q-30 0 -39 25l-43 111h-316l-43 -111q-9 -25 -39 -25h-72q-11 0 -19 8t-8 19q0 4 1 7l245 632q6 18 14.5 26t23.5 8h110q15 0 23.5 -8zM352 546l-110 -285h220zM406 896q8 -4 18 -15l92 -102
q5 -5 5 -13q0 -16 -16 -16h-48q-9 0 -15 2.5t-16 8.5l-74 47l-74 -47q-10 -6 -16 -8.5t-15 -2.5h-48q-16 0 -16 16q0 8 5 13l92 102q10 11 18 15t19 4h70q11 0 19 -4z" />
    <glyph glyph-name="Adieresis" unicode="&#xc4;" horiz-adv-x="704" 
d="M430.5 692q8.5 -8 14.5 -26l245 -632q1 -3 1 -7q0 -11 -8 -19t-19 -8h-72q-30 0 -39 25l-43 111h-316l-43 -111q-9 -25 -39 -25h-72q-11 0 -19 8t-8 19q0 4 1 7l245 632q6 18 14.5 26t23.5 8h110q15 0 23.5 -8zM352 546l-110 -285h220zM294 884q8 -8 8 -19v-88
q0 -11 -8 -19t-19 -8h-83q-11 0 -19 8t-8 19v88q0 11 8 19t19 8h83q11 0 19 -8zM531 884q8 -8 8 -19v-88q0 -11 -8 -19t-19 -8h-83q-11 0 -19 8t-8 19v88q0 11 8 19t19 8h83q11 0 19 -8z" />
    <glyph glyph-name="Agrave" unicode="&#xc0;" horiz-adv-x="704" 
d="M430.5 692q8.5 -8 14.5 -26l245 -632q1 -3 1 -7q0 -11 -8 -19t-19 -8h-72q-30 0 -39 25l-43 111h-316l-43 -111q-9 -25 -39 -25h-72q-11 0 -19 8t-8 19q0 4 1 7l245 632q6 18 14.5 26t23.5 8h110q15 0 23.5 -8zM352 546l-110 -285h220zM411 766q0 -16 -16 -16h-60
q-14 0 -22.5 4t-19.5 13l-123 101q-5 5 -5 12q0 9 5 14.5t14 5.5h100q12 0 19 -3.5t18 -15.5l85 -102q5 -7 5 -13z" />
    <glyph glyph-name="Amacron" unicode="&#x100;" horiz-adv-x="704" 
d="M430.5 692q8.5 -8 14.5 -26l245 -632q1 -3 1 -7q0 -11 -8 -19t-19 -8h-72q-30 0 -39 25l-43 111h-316l-43 -111q-9 -25 -39 -25h-72q-11 0 -19 8t-8 19q0 4 1 7l245 632q6 18 14.5 26t23.5 8h110q15 0 23.5 -8zM352 546l-110 -285h220zM194 758q-8 8 -8 19v66q0 11 8 19
t19 8h279q11 0 19 -8t8 -19v-66q0 -11 -8 -19t-19 -8h-279q-11 0 -19 8z" />
    <glyph glyph-name="Aogonek" unicode="&#x104;" horiz-adv-x="704" 
d="M430.5 692q8.5 -8 14.5 -26l245 -632q1 -3 1 -7q0 -11 -8 -19t-19 -8h-12q-26 0 -42 -17t-16 -47t16 -47t42 -17h15q10 0 16 -6t6 -16v-48q0 -10 -6 -16t-16 -6h-19q-69 0 -111 42.5t-42 113.5q0 37 12 67t34 51l-31 82h-316l-43 -111q-9 -25 -39 -25h-72q-11 0 -19 8
t-8 19q0 4 1 7l245 632q6 18 14.5 26t23.5 8h110q15 0 23.5 -8zM352 546l-110 -285h220z" />
    <glyph glyph-name="Aring" unicode="&#xc5;" horiz-adv-x="704" 
d="M430.5 692q8.5 -8 14.5 -26l245 -632q1 -3 1 -7q0 -11 -8 -19t-19 -8h-72q-30 0 -39 25l-43 111h-316l-43 -111q-9 -25 -39 -25h-72q-11 0 -19 8t-8 19q0 4 1 7l245 632q6 18 14.5 26t23.5 8h110q15 0 23.5 -8zM352 546l-110 -285h220zM416 886q26 -24 26 -61t-26 -61
t-64 -24t-64 24t-26 61t26 61t64 24t64 -24zM373.5 803.5q8.5 8.5 8.5 21.5t-8.5 21.5t-21.5 8.5t-21.5 -8.5t-8.5 -21.5t8.5 -21.5t21.5 -8.5t21.5 8.5z" />
    <glyph glyph-name="Atilde" unicode="&#xc3;" horiz-adv-x="704" 
d="M430.5 692q8.5 -8 14.5 -26l245 -632q1 -3 1 -7q0 -11 -8 -19t-19 -8h-72q-30 0 -39 25l-43 111h-316l-43 -111q-9 -25 -39 -25h-72q-11 0 -19 8t-8 19q0 4 1 7l245 632q6 18 14.5 26t23.5 8h110q15 0 23.5 -8zM352 546l-110 -285h220zM282.5 775q-5.5 -4 -10.5 -12
q-4 -7 -8 -10t-11 -3h-56q-9 0 -14 5.5t-5 13.5q0 26 13 53t36.5 45t55.5 18q27 0 44.5 -5.5t35.5 -15.5q12 -7 21.5 -10t20.5 -3t16.5 4t10.5 12q4 7 8 10t11 3h56q9 0 14 -5.5t5 -13.5q0 -26 -13 -53t-36.5 -45t-55.5 -18q-27 0 -44.5 5.5t-35.5 15.5q-12 7 -21.5 10
t-20.5 3t-16.5 -4z" />
    <glyph glyph-name="AE" unicode="&#xc6;" horiz-adv-x="1010" 
d="M956 117q8 -8 8 -19v-71q0 -11 -8 -19t-19 -8h-439q-11 0 -19 8t-8 19v109h-261l-65 -111q-15 -25 -39 -25h-79q-11 0 -19 8t-8 19q0 5 4 12l369 628q9 16 18 24.5t27 8.5h511q11 0 19 -8t8 -19v-71q0 -11 -8 -19t-19 -8h-323v-159h301q11 0 19 -8t8 -19v-71
q0 -11 -8 -19t-19 -8h-301v-166h331q11 0 19 -8zM471 576l-187 -315h187v315z" />
    <glyph glyph-name="AEacute" unicode="&#x1fc;" horiz-adv-x="1010" 
d="M586 896.5q7 3.5 19 3.5h100q9 0 14 -5.5t5 -14.5q0 -7 -5 -12l-123 -101q-11 -9 -19.5 -13t-22.5 -4h-60q-16 0 -16 16q0 6 5 13l85 102q11 12 18 15.5zM956 117q8 -8 8 -19v-71q0 -11 -8 -19t-19 -8h-439q-11 0 -19 8t-8 19v109h-261l-65 -111q-15 -25 -39 -25h-79
q-11 0 -19 8t-8 19q0 5 4 12l369 628q9 16 18 24.5t27 8.5h511q11 0 19 -8t8 -19v-71q0 -11 -8 -19t-19 -8h-323v-159h301q11 0 19 -8t8 -19v-71q0 -11 -8 -19t-19 -8h-301v-166h331q11 0 19 -8zM471 576l-187 -315h187v315z" />
    <glyph glyph-name="B" unicode="B" horiz-adv-x="686" 
d="M86 8q-8 8 -8 19v646q0 11 8 19t19 8h295q79 0 129.5 -31t73 -76t22.5 -90q0 -52 -23 -86.5t-46 -49.5q36 -24 59.5 -63.5t23.5 -93.5q0 -52 -25.5 -100.5t-74.5 -79t-116 -30.5h-318q-11 0 -19 8zM213 575v-154h177q51 0 75.5 19t24.5 58t-24.5 58t-75.5 19h-177z
M398 125q53 0 79.5 23t26.5 62t-27.5 62.5t-78.5 23.5h-185v-171h185z" />
    <glyph glyph-name="C" unicode="C" horiz-adv-x="684" 
d="M618 248q12 0 20 -7.5t7 -19.5q-4 -58 -36.5 -111t-98 -86.5t-163.5 -33.5q-134 0 -210 75.5t-84 200.5q-2 50 -2 84t2 84q8 125 84 200.5t210 75.5q98 0 163.5 -33.5t98 -86.5t36.5 -111q1 -12 -7 -19.5t-20 -7.5h-81q-10 0 -19 7t-11 19q-8 45 -47.5 76t-112.5 31
q-74 0 -114.5 -42t-44.5 -109q-2 -50 -2 -84t2 -84q4 -67 44.5 -109t114.5 -42q73 0 113 31t48 76q2 12 10.5 19t18.5 7h81z" />
    <glyph glyph-name="Cacute" unicode="&#x106;" horiz-adv-x="684" 
d="M618 248q12 0 20 -7.5t7 -19.5q-4 -58 -36.5 -111t-98 -86.5t-163.5 -33.5q-134 0 -210 75.5t-84 200.5q-2 50 -2 84t2 84q8 125 84 200.5t210 75.5q98 0 163.5 -33.5t98 -86.5t36.5 -111q1 -12 -7 -19.5t-20 -7.5h-81q-10 0 -19 7t-11 19q-8 45 -47.5 76t-112.5 31
q-74 0 -114.5 -42t-44.5 -109q-2 -50 -2 -84t2 -84q4 -67 44.5 -109t114.5 -42q73 0 113 31t48 76q2 12 10.5 19t18.5 7h81zM403 896.5q7 3.5 19 3.5h100q9 0 14 -5.5t5 -14.5q0 -7 -5 -12l-123 -101q-11 -9 -19.5 -13t-22.5 -4h-60q-16 0 -16 16q0 6 5 13l85 102
q11 12 18 15.5z" />
    <glyph glyph-name="Ccaron" unicode="&#x10c;" horiz-adv-x="684" 
d="M618 248q12 0 20 -7.5t7 -19.5q-4 -58 -36.5 -111t-98 -86.5t-163.5 -33.5q-134 0 -210 75.5t-84 200.5q-2 50 -2 84t2 84q8 125 84 200.5t210 75.5q98 0 163.5 -33.5t98 -86.5t36.5 -111q1 -12 -7 -19.5t-20 -7.5h-81q-10 0 -19 7t-11 19q-8 45 -47.5 76t-112.5 31
q-74 0 -114.5 -42t-44.5 -109q-2 -50 -2 -84t2 -84q4 -67 44.5 -109t114.5 -42q73 0 113 31t48 76q2 12 10.5 19t18.5 7h81zM294 754q-8 4 -18 15l-92 102q-5 5 -5 13q0 16 16 16h48q9 0 15 -2.5t16 -8.5l74 -47l74 47q10 6 16 8.5t15 2.5h48q16 0 16 -16q0 -8 -5 -13
l-92 -102q-10 -11 -18 -15t-19 -4h-70q-11 0 -19 4z" />
    <glyph glyph-name="Ccedilla" unicode="&#xc7;" horiz-adv-x="684" 
d="M618 248q12 0 20 -7.5t7 -19.5q-4 -58 -36 -110.5t-97 -86t-162 -34.5l-21 -46q16 10 35 10q38 0 57 -23.5t19 -62.5q0 -38 -26 -63t-73 -25q-30 0 -56 13t-26 27q0 7 5 11l14 13q8 7 14 7q4 0 17 -7.5t32 -7.5q18 0 28 8.5t10 23.5q0 30 -38 30q-9 0 -21.5 -5t-18.5 -5
q-8 0 -14 6l-16 18l-5.5 7.5t-2.5 7.5q0 6 6 18l22 49q-108 15 -169.5 88t-68.5 184q-2 50 -2 84t2 84q8 125 84 200.5t210 75.5q98 0 163.5 -33.5t98 -86.5t36.5 -111q1 -12 -7 -19.5t-20 -7.5h-81q-10 0 -19 7t-11 19q-8 45 -47.5 76t-112.5 31q-74 0 -114.5 -42
t-44.5 -109q-2 -50 -2 -84t2 -84q4 -67 44.5 -109t114.5 -42q73 0 113 31t48 76q2 12 10.5 19t18.5 7h81z" />
    <glyph glyph-name="Ccircumflex" unicode="&#x108;" horiz-adv-x="684" 
d="M618 248q12 0 20 -7.5t7 -19.5q-4 -58 -36.5 -111t-98 -86.5t-163.5 -33.5q-134 0 -210 75.5t-84 200.5q-2 50 -2 84t2 84q8 125 84 200.5t210 75.5q98 0 163.5 -33.5t98 -86.5t36.5 -111q1 -12 -7 -19.5t-20 -7.5h-81q-10 0 -19 7t-11 19q-8 45 -47.5 76t-112.5 31
q-74 0 -114.5 -42t-44.5 -109q-2 -50 -2 -84t2 -84q4 -67 44.5 -109t114.5 -42q73 0 113 31t48 76q2 12 10.5 19t18.5 7h81zM402 896q8 -4 18 -15l92 -102q5 -5 5 -13q0 -16 -16 -16h-48q-9 0 -15 2.5t-16 8.5l-74 47l-74 -47q-10 -6 -16 -8.5t-15 -2.5h-48q-16 0 -16 16
q0 8 5 13l92 102q10 11 18 15t19 4h70q11 0 19 -4z" />
    <glyph glyph-name="Cdotaccent" unicode="&#x10a;" horiz-adv-x="684" 
d="M618 248q12 0 20 -7.5t7 -19.5q-4 -58 -36.5 -111t-98 -86.5t-163.5 -33.5q-134 0 -210 75.5t-84 200.5q-2 50 -2 84t2 84q8 125 84 200.5t210 75.5q98 0 163.5 -33.5t98 -86.5t36.5 -111q1 -12 -7 -19.5t-20 -7.5h-81q-10 0 -19 7t-11 19q-8 45 -47.5 76t-112.5 31
q-74 0 -114.5 -42t-44.5 -109q-2 -50 -2 -84t2 -84q4 -67 44.5 -109t114.5 -42q73 0 113 31t48 76q2 12 10.5 19t18.5 7h81zM411 889q8 -8 8 -19v-93q0 -11 -8 -19t-19 -8h-88q-11 0 -19 8t-8 19v93q0 11 8 19t19 8h88q11 0 19 -8z" />
    <glyph glyph-name="D" unicode="D" horiz-adv-x="704" 
d="M653 350q0 -49 -2 -74q-8 -131 -81 -203.5t-213 -72.5h-252q-11 0 -19 8t-8 19v646q0 11 8 19t19 8h247q143 0 217 -72.5t82 -203.5q2 -25 2 -74zM213 575v-450h139q79 0 119.5 41t44.5 110q2 25 2 74t-2 74q-4 69 -45.5 110t-123.5 41h-134z" />
    <glyph glyph-name="Eth" unicode="&#xd0;" horiz-adv-x="727" 
d="M676 350q0 -49 -2 -74q-8 -131 -81 -203.5t-213 -72.5h-252q-11 0 -19 8t-8 19v269h-53q-11 0 -19 8t-8 19v63q0 11 8 19t19 8h53v260q0 11 8 19t19 8h247q143 0 217 -72.5t82 -203.5q2 -25 2 -74zM236 575v-162h107q11 0 19 -8t8 -19v-63q0 -11 -8 -19t-19 -8h-107v-171
h139q79 0 119.5 41t44.5 110q2 25 2 74t-2 74q-4 69 -45.5 110t-123.5 41h-134z" />
    <glyph glyph-name="Dcaron" unicode="&#x10e;" horiz-adv-x="704" 
d="M653 350q0 -49 -2 -74q-8 -131 -81 -203.5t-213 -72.5h-252q-11 0 -19 8t-8 19v646q0 11 8 19t19 8h247q143 0 217 -72.5t82 -203.5q2 -25 2 -74zM213 575v-450h139q79 0 119.5 41t44.5 110q2 25 2 74t-2 74q-4 69 -45.5 110t-123.5 41h-134zM282 754q-8 4 -18 15
l-92 102q-5 5 -5 13q0 16 16 16h48q9 0 15 -2.5t16 -8.5l74 -47l74 47q10 6 16 8.5t15 2.5h48q16 0 16 -16q0 -8 -5 -13l-92 -102q-10 -11 -18 -15t-19 -4h-70q-11 0 -19 4z" />
    <glyph glyph-name="Dcroat" unicode="&#x110;" horiz-adv-x="727" 
d="M676 350q0 -49 -2 -74q-8 -131 -81 -203.5t-213 -72.5h-252q-11 0 -19 8t-8 19v269h-53q-11 0 -19 8t-8 19v63q0 11 8 19t19 8h53v260q0 11 8 19t19 8h247q143 0 217 -72.5t82 -203.5q2 -25 2 -74zM236 575v-162h107q11 0 19 -8t8 -19v-63q0 -11 -8 -19t-19 -8h-107v-171
h139q79 0 119.5 41t44.5 110q2 25 2 74t-2 74q-4 69 -45.5 110t-123.5 41h-134z" />
    <glyph glyph-name="E" unicode="E" horiz-adv-x="617" 
d="M213 291h301q11 0 19 8t8 19v71q0 11 -8 19t-19 8h-301v159h323q11 0 19 8t8 19v71q0 11 -8 19t-19 8h-431q-11 0 -19 -8t-8 -19v-646q0 -11 8 -19t19 -8h439q11 0 19 8t8 19v71q0 11 -8 19t-19 8h-331v166z" />
    <glyph glyph-name="Eacute" unicode="&#xc9;" horiz-adv-x="617" 
d="M213 291h301q11 0 19 8t8 19v71q0 11 -8 19t-19 8h-301v159h323q11 0 19 8t8 19v71q0 11 -8 19t-19 8h-431q-11 0 -19 -8t-8 -19v-646q0 -11 8 -19t19 -8h439q11 0 19 8t8 19v71q0 11 -8 19t-19 8h-331v166zM366 896.5q7 3.5 19 3.5h100q9 0 14 -5.5t5 -14.5q0 -7 -5 -12
l-123 -101q-11 -9 -19.5 -13t-22.5 -4h-60q-16 0 -16 16q0 6 5 13l85 102q11 12 18 15.5z" />
    <glyph glyph-name="Ebreve" unicode="&#x114;" horiz-adv-x="617" 
d="M213 291h301q11 0 19 8t8 19v71q0 11 -8 19t-19 8h-301v159h323q11 0 19 8t8 19v71q0 11 -8 19t-19 8h-431q-11 0 -19 -8t-8 -19v-646q0 -11 8 -19t19 -8h439q11 0 19 8t8 19v71q0 11 -8 19t-19 8h-331v166zM180 894.5q5 5.5 14 5.5h57q9 0 14 -5.5t5 -13.5
q0 -23 14 -36.5t40 -13.5t40 13.5t14 36.5q0 8 5 13.5t14 5.5h57q9 0 14 -5.5t5 -13.5q0 -55 -35.5 -95.5t-113.5 -40.5t-113.5 40.5t-35.5 95.5q0 8 5 13.5z" />
    <glyph glyph-name="Ecaron" unicode="&#x11a;" horiz-adv-x="617" 
d="M213 291h301q11 0 19 8t8 19v71q0 11 -8 19t-19 8h-301v159h323q11 0 19 8t8 19v71q0 11 -8 19t-19 8h-431q-11 0 -19 -8t-8 -19v-646q0 -11 8 -19t19 -8h439q11 0 19 8t8 19v71q0 11 -8 19t-19 8h-331v166zM270 754q-8 4 -18 15l-92 102q-5 5 -5 13q0 16 16 16h48
q9 0 15 -2.5t16 -8.5l74 -47l74 47q10 6 16 8.5t15 2.5h48q16 0 16 -16q0 -8 -5 -13l-92 -102q-10 -11 -18 -15t-19 -4h-70q-11 0 -19 4z" />
    <glyph glyph-name="Ecircumflex" unicode="&#xca;" horiz-adv-x="617" 
d="M213 291h301q11 0 19 8t8 19v71q0 11 -8 19t-19 8h-301v159h323q11 0 19 8t8 19v71q0 11 -8 19t-19 8h-431q-11 0 -19 -8t-8 -19v-646q0 -11 8 -19t19 -8h439q11 0 19 8t8 19v71q0 11 -8 19t-19 8h-331v166zM378 896q8 -4 18 -15l92 -102q5 -5 5 -13q0 -16 -16 -16h-48
q-9 0 -15 2.5t-16 8.5l-74 47l-74 -47q-10 -6 -16 -8.5t-15 -2.5h-48q-16 0 -16 16q0 8 5 13l92 102q10 11 18 15t19 4h70q11 0 19 -4z" />
    <glyph glyph-name="Edieresis" unicode="&#xcb;" horiz-adv-x="617" 
d="M213 291h301q11 0 19 8t8 19v71q0 11 -8 19t-19 8h-301v159h323q11 0 19 8t8 19v71q0 11 -8 19t-19 8h-431q-11 0 -19 -8t-8 -19v-646q0 -11 8 -19t19 -8h439q11 0 19 8t8 19v71q0 11 -8 19t-19 8h-331v166zM266 884q8 -8 8 -19v-88q0 -11 -8 -19t-19 -8h-83q-11 0 -19 8
t-8 19v88q0 11 8 19t19 8h83q11 0 19 -8zM503 884q8 -8 8 -19v-88q0 -11 -8 -19t-19 -8h-83q-11 0 -19 8t-8 19v88q0 11 8 19t19 8h83q11 0 19 -8z" />
    <glyph glyph-name="Edotaccent" unicode="&#x116;" horiz-adv-x="617" 
d="M213 291h301q11 0 19 8t8 19v71q0 11 -8 19t-19 8h-301v159h323q11 0 19 8t8 19v71q0 11 -8 19t-19 8h-431q-11 0 -19 -8t-8 -19v-646q0 -11 8 -19t19 -8h439q11 0 19 8t8 19v71q0 11 -8 19t-19 8h-331v166zM387 889q8 -8 8 -19v-93q0 -11 -8 -19t-19 -8h-88q-11 0 -19 8
t-8 19v93q0 11 8 19t19 8h88q11 0 19 -8z" />
    <glyph glyph-name="Egrave" unicode="&#xc8;" horiz-adv-x="617" 
d="M213 291h301q11 0 19 8t8 19v71q0 11 -8 19t-19 8h-301v159h323q11 0 19 8t8 19v71q0 11 -8 19t-19 8h-431q-11 0 -19 -8t-8 -19v-646q0 -11 8 -19t19 -8h439q11 0 19 8t8 19v71q0 11 -8 19t-19 8h-331v166zM380 766q0 -16 -16 -16h-60q-14 0 -22.5 4t-19.5 13l-123 101
q-5 5 -5 12q0 9 5 14.5t14 5.5h100q12 0 19 -3.5t18 -15.5l85 -102q5 -7 5 -13z" />
    <glyph glyph-name="Emacron" unicode="&#x112;" horiz-adv-x="617" 
d="M213 291h301q11 0 19 8t8 19v71q0 11 -8 19t-19 8h-301v159h323q11 0 19 8t8 19v71q0 11 -8 19t-19 8h-431q-11 0 -19 -8t-8 -19v-646q0 -11 8 -19t19 -8h439q11 0 19 8t8 19v71q0 11 -8 19t-19 8h-331v166zM166 758q-8 8 -8 19v66q0 11 8 19t19 8h279q11 0 19 -8t8 -19
v-66q0 -11 -8 -19t-19 -8h-279q-11 0 -19 8z" />
    <glyph glyph-name="Eogonek" unicode="&#x118;" horiz-adv-x="617" 
d="M419 -177.5q-42 42.5 -42 113.5q0 34 11 64h-283q-11 0 -19 8t-8 19v646q0 11 8 19t19 8h431q11 0 19 -8t8 -19v-71q0 -11 -8 -19t-19 -8h-323v-159h301q11 0 19 -8t8 -19v-71q0 -11 -8 -19t-19 -8h-301v-166h331q11 0 19 -8t8 -19v-71q0 -11 -8 -19t-19 -8h-10
q-26 0 -42 -17t-16 -47t16 -47t42 -17h15q10 0 16 -6t6 -16v-48q0 -10 -6 -16t-16 -6h-19q-69 0 -111 42.5z" />
    <glyph glyph-name="F" unicode="F" horiz-adv-x="597" 
d="M551 692q8 -8 8 -19v-71q0 -11 -8 -19t-19 -8h-319v-194h299q11 0 19 -8t8 -19v-71q0 -11 -8 -19t-19 -8h-299v-229q0 -11 -8 -19t-19 -8h-81q-11 0 -19 8t-8 19v646q0 11 8 19t19 8h427q11 0 19 -8z" />
    <glyph glyph-name="G" unicode="G" horiz-adv-x="708" 
d="M527.5 676q65.5 -34 93.5 -79.5t31 -84.5q1 -12 -7 -19.5t-20 -7.5h-81q-18 0 -27 17q-45 83 -161 83q-74 0 -119.5 -40.5t-48.5 -108.5q-1 -25 -1 -81q0 -57 1 -82q3 -80 47 -119t121 -39q169 0 169 154v8h-122q-11 0 -19 8t-8 19v71q0 11 8 19t19 8h230q11 0 19 -8
t8 -19v-110q0 -81 -34.5 -143t-103 -97t-166.5 -35q-146 0 -222 73.5t-81 199.5q-1 25 -1 89t1 89q5 123 82 196t221 73q106 0 171.5 -34z" />
    <glyph glyph-name="Gbreve" unicode="&#x11e;" horiz-adv-x="708" 
d="M527.5 676q65.5 -34 93.5 -79.5t31 -84.5q1 -12 -7 -19.5t-20 -7.5h-81q-18 0 -27 17q-45 83 -161 83q-74 0 -119.5 -40.5t-48.5 -108.5q-1 -25 -1 -81q0 -57 1 -82q3 -80 47 -119t121 -39q169 0 169 154v8h-122q-11 0 -19 8t-8 19v71q0 11 8 19t19 8h230q11 0 19 -8
t8 -19v-110q0 -81 -34.5 -143t-103 -97t-166.5 -35q-146 0 -222 73.5t-81 199.5q-1 25 -1 89t1 89q5 123 82 196t221 73q106 0 171.5 -34zM211 894.5q5 5.5 14 5.5h57q9 0 14 -5.5t5 -13.5q0 -23 14 -36.5t40 -13.5t40 13.5t14 36.5q0 8 5 13.5t14 5.5h57q9 0 14 -5.5
t5 -13.5q0 -55 -35.5 -95.5t-113.5 -40.5t-113.5 40.5t-35.5 95.5q0 8 5 13.5z" />
    <glyph glyph-name="Gcircumflex" unicode="&#x11c;" horiz-adv-x="708" 
d="M527.5 676q65.5 -34 93.5 -79.5t31 -84.5q1 -12 -7 -19.5t-20 -7.5h-81q-18 0 -27 17q-45 83 -161 83q-74 0 -119.5 -40.5t-48.5 -108.5q-1 -25 -1 -81q0 -57 1 -82q3 -80 47 -119t121 -39q169 0 169 154v8h-122q-11 0 -19 8t-8 19v71q0 11 8 19t19 8h230q11 0 19 -8
t8 -19v-110q0 -81 -34.5 -143t-103 -97t-166.5 -35q-146 0 -222 73.5t-81 199.5q-1 25 -1 89t1 89q5 123 82 196t221 73q106 0 171.5 -34zM409 896q8 -4 18 -15l92 -102q5 -5 5 -13q0 -16 -16 -16h-48q-9 0 -15 2.5t-16 8.5l-74 47l-74 -47q-10 -6 -16 -8.5t-15 -2.5h-48
q-16 0 -16 16q0 8 5 13l92 102q10 11 18 15t19 4h70q11 0 19 -4z" />
    <glyph glyph-name="Gcommaaccent" unicode="&#x122;" horiz-adv-x="708" 
d="M527.5 676q65.5 -34 93.5 -79.5t31 -84.5q1 -12 -7 -19.5t-20 -7.5h-81q-18 0 -27 17q-45 83 -161 83q-74 0 -119.5 -40.5t-48.5 -108.5q-1 -25 -1 -81q0 -57 1 -82q3 -80 47 -119t121 -39q169 0 169 154v8h-122q-11 0 -19 8t-8 19v71q0 11 8 19t19 8h230q11 0 19 -8
t8 -19v-110q0 -81 -34.5 -143t-103 -97t-166.5 -35q-146 0 -222 73.5t-81 199.5q-1 25 -1 89t1 89q5 123 82 196t221 73q106 0 171.5 -34zM291.5 -61.5q10.5 11.5 29.5 11.5h87q9 0 15.5 -6.5t6.5 -15.5q0 -4 -1 -7l-55 -139q-12 -32 -43 -32h-52q-9 0 -15.5 6.5t-6.5 15.5
v2l21 137q3 16 13.5 27.5z" />
    <glyph glyph-name="Gdotaccent" unicode="&#x120;" horiz-adv-x="708" 
d="M527.5 676q65.5 -34 93.5 -79.5t31 -84.5q1 -12 -7 -19.5t-20 -7.5h-81q-18 0 -27 17q-45 83 -161 83q-74 0 -119.5 -40.5t-48.5 -108.5q-1 -25 -1 -81q0 -57 1 -82q3 -80 47 -119t121 -39q169 0 169 154v8h-122q-11 0 -19 8t-8 19v71q0 11 8 19t19 8h230q11 0 19 -8
t8 -19v-110q0 -81 -34.5 -143t-103 -97t-166.5 -35q-146 0 -222 73.5t-81 199.5q-1 25 -1 89t1 89q5 123 82 196t221 73q106 0 171.5 -34zM418 889q8 -8 8 -19v-93q0 -11 -8 -19t-19 -8h-88q-11 0 -19 8t-8 19v93q0 11 8 19t19 8h88q11 0 19 -8z" />
    <glyph glyph-name="H" unicode="H" horiz-adv-x="728" 
d="M642 692q8 -8 8 -19v-646q0 -11 -8 -19t-19 -8h-81q-11 0 -19 8t-8 19v264h-302v-264q0 -11 -8 -19t-19 -8h-81q-11 0 -19 7.5t-8 19.5v646q0 11 8 19t19 8h81q11 0 19 -8t8 -19v-257h302v257q0 11 8 19t19 8h81q11 0 19 -8z" />
    <glyph glyph-name="Hbar" unicode="&#x126;" horiz-adv-x="728" 
d="M642 692q8 -8 8 -19v-646q0 -11 -8 -19t-19 -8h-81q-11 0 -19 8t-8 19v264h-302v-264q0 -11 -8 -19t-19 -8h-81q-11 0 -19 7.5t-8 19.5v646q0 11 8 19t19 8h81q11 0 19 -8t8 -19v-53h302v53q0 11 8 19t19 8h81q11 0 19 -8zM515 495h-302v-79h302v79z" />
    <glyph glyph-name="Hcircumflex" unicode="&#x124;" horiz-adv-x="728" 
d="M642 692q8 -8 8 -19v-646q0 -11 -8 -19t-19 -8h-81q-11 0 -19 8t-8 19v264h-302v-264q0 -11 -8 -19t-19 -8h-81q-11 0 -19 7.5t-8 19.5v646q0 11 8 19t19 8h81q11 0 19 -8t8 -19v-257h302v257q0 11 8 19t19 8h81q11 0 19 -8zM418 896q8 -4 18 -15l92 -102q5 -5 5 -13
q0 -16 -16 -16h-48q-9 0 -15 2.5t-16 8.5l-74 47l-74 -47q-10 -6 -16 -8.5t-15 -2.5h-48q-16 0 -16 16q0 8 5 13l92 102q10 11 18 15t19 4h70q11 0 19 -4z" />
    <glyph glyph-name="I" unicode="I" horiz-adv-x="291" 
d="M86 8q-8 8 -8 19v646q0 11 8 19t19 8h81q11 0 19 -8t8 -19v-646q0 -11 -8 -19t-19 -8h-81q-11 0 -19 8z" />
    <glyph glyph-name="IJ" unicode="&#x132;" horiz-adv-x="671" 
d="M86 8q-8 8 -8 19v646q0 11 8 19t19 8h81q11 0 19 -8t8 -19v-646q0 -11 -8 -19t-19 -8h-81q-11 0 -19 8zM426 151.5q37 36.5 37 104.5v417q0 11 8 19t19 8h81q11 0 19 -8t8 -19v-423q0 -127 -72 -193.5t-206 -66.5q-11 0 -19 8t-8 19v71q0 11 8 19t19 8q69 0 106 36.5z
" />
    <glyph glyph-name="Iacute" unicode="&#xcd;" horiz-adv-x="291" 
d="M86 8q-8 8 -8 19v646q0 11 8 19t19 8h81q11 0 19 -8t8 -19v-646q0 -11 -8 -19t-19 -8h-81q-11 0 -19 8zM197 896.5q7 3.5 19 3.5h100q9 0 14 -5.5t5 -14.5q0 -7 -5 -12l-123 -101q-11 -9 -19.5 -13t-22.5 -4h-60q-16 0 -16 16q0 6 5 13l85 102q11 12 18 15.5z" />
    <glyph glyph-name="Ibreve" unicode="&#x12c;" horiz-adv-x="291" 
d="M86 8q-8 8 -8 19v646q0 11 8 19t19 8h81q11 0 19 -8t8 -19v-646q0 -11 -8 -19t-19 -8h-81q-11 0 -19 8zM1 894.5q5 5.5 14 5.5h57q9 0 14 -5.5t5 -13.5q0 -23 14 -36.5t40 -13.5t40 13.5t14 36.5q0 8 5 13.5t14 5.5h57q9 0 14 -5.5t5 -13.5q0 -55 -35.5 -95.5
t-113.5 -40.5t-113.5 40.5t-35.5 95.5q0 8 5 13.5z" />
    <glyph glyph-name="Icircumflex" unicode="&#xce;" horiz-adv-x="291" 
d="M86 8q-8 8 -8 19v646q0 11 8 19t19 8h81q11 0 19 -8t8 -19v-646q0 -11 -8 -19t-19 -8h-81q-11 0 -19 8zM199 896q8 -4 18 -15l92 -102q5 -5 5 -13q0 -16 -16 -16h-48q-9 0 -15 2.5t-16 8.5l-74 47l-74 -47q-10 -6 -16 -8.5t-15 -2.5h-48q-16 0 -16 16q0 8 5 13l92 102
q10 11 18 15t19 4h70q11 0 19 -4z" />
    <glyph glyph-name="Idieresis" unicode="&#xcf;" horiz-adv-x="291" 
d="M86 8q-8 8 -8 19v646q0 11 8 19t19 8h81q11 0 19 -8t8 -19v-646q0 -11 -8 -19t-19 -8h-81q-11 0 -19 8zM87 884q8 -8 8 -19v-88q0 -11 -8 -19t-19 -8h-83q-11 0 -19 8t-8 19v88q0 11 8 19t19 8h83q11 0 19 -8zM324 884q8 -8 8 -19v-88q0 -11 -8 -19t-19 -8h-83
q-11 0 -19 8t-8 19v88q0 11 8 19t19 8h83q11 0 19 -8z" />
    <glyph glyph-name="Idotaccent" unicode="&#x130;" horiz-adv-x="291" 
d="M86 8q-8 8 -8 19v646q0 11 8 19t19 8h81q11 0 19 -8t8 -19v-646q0 -11 -8 -19t-19 -8h-81q-11 0 -19 8zM208 889q8 -8 8 -19v-93q0 -11 -8 -19t-19 -8h-88q-11 0 -19 8t-8 19v93q0 11 8 19t19 8h88q11 0 19 -8z" />
    <glyph glyph-name="Igrave" unicode="&#xcc;" horiz-adv-x="291" 
d="M86 8q-8 8 -8 19v646q0 11 8 19t19 8h81q11 0 19 -8t8 -19v-646q0 -11 -8 -19t-19 -8h-81q-11 0 -19 8zM205 766q0 -16 -16 -16h-60q-14 0 -22.5 4t-19.5 13l-123 101q-5 5 -5 12q0 9 5 14.5t14 5.5h100q12 0 19 -3.5t18 -15.5l85 -102q5 -7 5 -13z" />
    <glyph glyph-name="Imacron" unicode="&#x12a;" horiz-adv-x="291" 
d="M86 8q-8 8 -8 19v646q0 11 8 19t19 8h81q11 0 19 -8t8 -19v-646q0 -11 -8 -19t-19 -8h-81q-11 0 -19 8zM-13 758q-8 8 -8 19v66q0 11 8 19t19 8h279q11 0 19 -8t8 -19v-66q0 -11 -8 -19t-19 -8h-279q-11 0 -19 8z" />
    <glyph glyph-name="Iogonek" unicode="&#x12e;" horiz-adv-x="297" 
d="M138.5 -18.5q-14.5 -16.5 -14.5 -45.5q0 -30 16 -47t42 -17h15q10 0 16 -6t6 -16v-48q0 -10 -6 -16t-16 -6h-19q-69 0 -111 42.5t-42 113.5q0 42 15.5 74.5t43.5 53.5v609q0 11 8 19t19 8h81q11 0 19 -8t8 -19v-646q0 -11 -8 -19t-19 -8h-15q-24 -2 -38.5 -18.5z" />
    <glyph glyph-name="Itilde" unicode="&#x128;" horiz-adv-x="291" 
d="M86 8q-8 8 -8 19v646q0 11 8 19t19 8h81q11 0 19 -8t8 -19v-646q0 -11 -8 -19t-19 -8h-81q-11 0 -19 8zM75.5 775q-5.5 -4 -10.5 -12q-4 -7 -8 -10t-11 -3h-56q-9 0 -14 5.5t-5 13.5q0 26 13 53t36.5 45t55.5 18q27 0 44.5 -5.5t35.5 -15.5q12 -7 21.5 -10t20.5 -3
t16.5 4t10.5 12q4 7 8 10t11 3h56q9 0 14 -5.5t5 -13.5q0 -26 -13 -53t-36.5 -45t-55.5 -18q-27 0 -44.5 5.5t-35.5 15.5q-12 7 -21.5 10t-20.5 3t-16.5 -4z" />
    <glyph glyph-name="J" unicode="J" horiz-adv-x="655" 
d="M119 575q-11 0 -19 8t-8 19v71q0 11 8 19t19 8h436q11 0 19 -8t8 -19v-423q0 -127 -72 -193.5t-206 -66.5q-135 0 -203.5 61t-74.5 160q-1 12 7 19.5t20 7.5h81q9 0 17.5 -5.5t9.5 -13.5q9 -45 44 -74.5t99 -29.5q69 0 106 36.5t37 104.5v319h-328z" />
    <glyph glyph-name="Jcircumflex" unicode="&#x134;" horiz-adv-x="655" 
d="M119 575q-11 0 -19 8t-8 19v71q0 11 8 19t19 8h436q11 0 19 -8t8 -19v-423q0 -127 -72 -193.5t-206 -66.5q-135 0 -203.5 61t-74.5 160q-1 12 7 19.5t20 7.5h81q9 0 17.5 -5.5t9.5 -13.5q9 -45 44 -74.5t99 -29.5q69 0 106 36.5t37 104.5v319h-328zM397 896q8 -4 18 -15
l92 -102q5 -5 5 -13q0 -16 -16 -16h-48q-9 0 -15 2.5t-16 8.5l-74 47l-74 -47q-10 -6 -16 -8.5t-15 -2.5h-48q-16 0 -16 16q0 8 5 13l92 102q10 11 18 15t19 4h70q11 0 19 -4z" />
    <glyph glyph-name="K" unicode="K" horiz-adv-x="628" 
d="M616 27q0 -11 -8 -19t-19 -8h-95q-17 0 -26.5 6.5t-19.5 16.5l-235 265v-261q0 -11 -8 -19t-19 -8h-81q-11 0 -19 8t-8 19v646q0 11 8 19t19 8h81q11 0 19 -8t8 -19v-235l218 240q10 11 20 16.5t25 5.5h92q11 0 19 -8t8 -19q0 -7 -6 -15l-269 -293l289 -323q7 -8 7 -15z
" />
    <glyph glyph-name="Kcommaaccent" unicode="&#x136;" horiz-adv-x="628" 
d="M616 27q0 -11 -8 -19t-19 -8h-95q-17 0 -26.5 6.5t-19.5 16.5l-235 265v-261q0 -11 -8 -19t-19 -8h-81q-11 0 -19 8t-8 19v646q0 11 8 19t19 8h81q11 0 19 -8t8 -19v-235l218 240q10 11 20 16.5t25 5.5h92q11 0 19 -8t8 -19q0 -7 -6 -15l-269 -293l289 -323q7 -8 7 -15z
M255.5 -61.5q10.5 11.5 29.5 11.5h87q9 0 15.5 -6.5t6.5 -15.5q0 -4 -1 -7l-55 -139q-12 -32 -43 -32h-52q-9 0 -15.5 6.5t-6.5 15.5v2l21 137q3 16 13.5 27.5z" />
    <glyph glyph-name="L" unicode="L" horiz-adv-x="588" 
d="M562 117q8 -8 8 -19v-71q0 -11 -8 -19t-19 -8h-438q-11 0 -19 8t-8 19v646q0 11 8 19t19 8h81q11 0 19 -8t8 -19v-548h330q11 0 19 -8z" />
    <glyph glyph-name="Lacute" unicode="&#x139;" horiz-adv-x="588" 
d="M562 117q8 -8 8 -19v-71q0 -11 -8 -19t-19 -8h-438q-11 0 -19 8t-8 19v646q0 11 8 19t19 8h81q11 0 19 -8t8 -19v-548h330q11 0 19 -8zM194 896.5q7 3.5 19 3.5h100q9 0 14 -5.5t5 -14.5q0 -7 -5 -12l-123 -101q-11 -9 -19.5 -13t-22.5 -4h-60q-16 0 -16 16q0 6 5 13
l85 102q11 12 18 15.5z" />
    <glyph glyph-name="Lcaron" unicode="&#x13d;" horiz-adv-x="588" 
d="M562 117q8 -8 8 -19v-71q0 -11 -8 -19t-19 -8h-438q-11 0 -19 8t-8 19v646q0 11 8 19t19 8h81q11 0 19 -8t8 -19v-548h330q11 0 19 -8zM327.5 698.5q10.5 11.5 29.5 11.5h87q9 0 15.5 -6.5t6.5 -15.5q0 -4 -1 -7l-55 -139q-12 -32 -43 -32h-52q-9 0 -15.5 6.5t-6.5 15.5
v2l21 137q3 16 13.5 27.5z" />
    <glyph glyph-name="Lcommaaccent" unicode="&#x13b;" horiz-adv-x="588" 
d="M562 117q8 -8 8 -19v-71q0 -11 -8 -19t-19 -8h-438q-11 0 -19 8t-8 19v646q0 11 8 19t19 8h81q11 0 19 -8t8 -19v-548h330q11 0 19 -8zM262.5 -61.5q10.5 11.5 29.5 11.5h87q9 0 15.5 -6.5t6.5 -15.5q0 -4 -1 -7l-55 -139q-12 -32 -43 -32h-52q-9 0 -15.5 6.5t-6.5 15.5
v2l21 137q3 16 13.5 27.5z" />
    <glyph glyph-name="Ldot" unicode="&#x13f;" horiz-adv-x="588" 
d="M562 117q8 -8 8 -19v-71q0 -11 -8 -19t-19 -8h-438q-11 0 -19 8t-8 19v646q0 11 8 19t19 8h81q11 0 19 -8t8 -19v-548h330q11 0 19 -8zM455 426q8 -8 8 -19v-98q0 -11 -8 -19t-19 -8h-93q-11 0 -19 8t-8 19v98q0 11 8 19t19 8h93q11 0 19 -8z" />
    <glyph glyph-name="Lslash" unicode="&#x141;" horiz-adv-x="599" 
d="M573 117q8 -8 8 -19v-71q0 -11 -8 -19t-19 -8h-438q-11 0 -19 8t-8 19v224l-38 -15q-7 -3 -11 -3q-9 0 -15 6t-6 15v48q0 14 5 21.5t17 11.5l48 19v319q0 11 8 19t19 8h81q11 0 19 -8t8 -19v-266l146 57q8 3 11 3q9 0 15 -6t6 -15v-48q0 -13 -5 -20.5t-17 -12.5l-156 -61
v-179h330q11 0 19 -8z" />
    <glyph glyph-name="M" unicode="M" horiz-adv-x="812" 
d="M596 673q9 12 17.5 19.5t25.5 7.5h68q11 0 19 -8t8 -19v-646q0 -11 -8 -19t-19 -8h-81q-11 0 -19 8t-8 19v391l-130 -225q-16 -25 -37 -25h-52q-21 0 -37 25l-130 225v-391q0 -11 -8 -19t-19 -8h-81q-11 0 -19 8t-8 19v646q0 11 8 19t19 8h68q17 0 25.5 -7.5t17.5 -19.5
l190 -330z" />
    <glyph glyph-name="N" unicode="N" horiz-adv-x="707" 
d="M493 23l-280 416v-412q0 -11 -8 -19t-19 -8h-81q-11 0 -19 8t-8 19v646q0 11 8 19t19 8h70q23 0 39 -23l280 -416v412q0 11 8 19t19 8h81q11 0 19 -8t8 -19v-646q0 -11 -8 -19t-19 -8h-70q-23 0 -39 23z" />
    <glyph glyph-name="Nacute" unicode="&#x143;" horiz-adv-x="707" 
d="M493 23l-280 416v-412q0 -11 -8 -19t-19 -8h-81q-11 0 -19 8t-8 19v646q0 11 8 19t19 8h70q23 0 39 -23l280 -416v412q0 11 8 19t19 8h81q11 0 19 -8t8 -19v-646q0 -11 -8 -19t-19 -8h-70q-23 0 -39 23zM404 896.5q7 3.5 19 3.5h100q9 0 14 -5.5t5 -14.5q0 -7 -5 -12
l-123 -101q-11 -9 -19.5 -13t-22.5 -4h-60q-16 0 -16 16q0 6 5 13l85 102q11 12 18 15.5z" />
    <glyph glyph-name="Ncaron" unicode="&#x147;" horiz-adv-x="707" 
d="M493 23l-280 416v-412q0 -11 -8 -19t-19 -8h-81q-11 0 -19 8t-8 19v646q0 11 8 19t19 8h70q23 0 39 -23l280 -416v412q0 11 8 19t19 8h81q11 0 19 -8t8 -19v-646q0 -11 -8 -19t-19 -8h-70q-23 0 -39 23zM299 754q-8 4 -18 15l-92 102q-5 5 -5 13q0 16 16 16h48
q9 0 15 -2.5t16 -8.5l74 -47l74 47q10 6 16 8.5t15 2.5h48q16 0 16 -16q0 -8 -5 -13l-92 -102q-10 -11 -18 -15t-19 -4h-70q-11 0 -19 4z" />
    <glyph glyph-name="Ncommaaccent" unicode="&#x145;" horiz-adv-x="707" 
d="M493 23l-280 416v-412q0 -11 -8 -19t-19 -8h-81q-11 0 -19 8t-8 19v646q0 11 8 19t19 8h70q23 0 39 -23l280 -416v412q0 11 8 19t19 8h81q11 0 19 -8t8 -19v-646q0 -11 -8 -19t-19 -8h-70q-23 0 -39 23zM288.5 -61.5q10.5 11.5 29.5 11.5h87q9 0 15.5 -6.5t6.5 -15.5
q0 -4 -1 -7l-55 -139q-12 -32 -43 -32h-52q-9 0 -15.5 6.5t-6.5 15.5v2l21 137q3 16 13.5 27.5z" />
    <glyph glyph-name="Eng" unicode="&#x14a;" horiz-adv-x="708" 
d="M213 439v-412q0 -11 -8 -19t-19 -8h-81q-11 0 -19 8t-8 19v646q0 11 8 19t19 8h70q23 0 39 -23l280 -416v412q0 11 8 19t19 8h81q11 0 19 -8t8 -19v-700q0 -198 -190 -198h-38q-11 0 -19 8t-8 19v71q0 11 8 19t19 8h15q43 0 60.5 17.5t17.5 50.5v54z" />
    <glyph glyph-name="Ntilde" unicode="&#xd1;" horiz-adv-x="707" 
d="M493 23l-280 416v-412q0 -11 -8 -19t-19 -8h-81q-11 0 -19 8t-8 19v646q0 11 8 19t19 8h70q23 0 39 -23l280 -416v412q0 11 8 19t19 8h81q11 0 19 -8t8 -19v-646q0 -11 -8 -19t-19 -8h-70q-23 0 -39 23zM283.5 775q-5.5 -4 -10.5 -12q-4 -7 -8 -10t-11 -3h-56
q-9 0 -14 5.5t-5 13.5q0 26 13 53t36.5 45t55.5 18q27 0 44.5 -5.5t35.5 -15.5q12 -7 21.5 -10t20.5 -3t16.5 4t10.5 12q4 7 8 10t11 3h56q9 0 14 -5.5t5 -13.5q0 -26 -13 -53t-36.5 -45t-55.5 -18q-27 0 -44.5 5.5t-35.5 15.5q-12 7 -21.5 10t-20.5 3t-16.5 -4z" />
    <glyph glyph-name="O" unicode="O" horiz-adv-x="696" 
d="M562 635q74 -75 80 -196q2 -46 2 -80q0 -45 -2 -99q-6 -120 -80 -195t-214 -75t-214 75t-80 195q-2 54 -2 99q0 34 2 80q6 120 80 195.5t214 75.5t214 -75zM235.5 545q-42.5 -40 -46.5 -111q-2 -50 -2 -84q0 -35 2 -85q4 -71 46.5 -110.5t112.5 -39.5t112.5 39.5
t46.5 110.5q2 25 2 85q0 59 -2 84q-4 71 -46.5 111t-112.5 40t-112.5 -40z" />
    <glyph glyph-name="Oacute" unicode="&#xd3;" horiz-adv-x="696" 
d="M562 635q74 -75 80 -196q2 -46 2 -80q0 -45 -2 -99q-6 -120 -80 -195t-214 -75t-214 75t-80 195q-2 54 -2 99q0 34 2 80q6 120 80 195.5t214 75.5t214 -75zM235.5 545q-42.5 -40 -46.5 -111q-2 -50 -2 -84q0 -35 2 -85q4 -71 46.5 -110.5t112.5 -39.5t112.5 39.5
t46.5 110.5q2 25 2 85q0 59 -2 84q-4 71 -46.5 111t-112.5 40t-112.5 -40zM396 896.5q7 3.5 19 3.5h100q9 0 14 -5.5t5 -14.5q0 -7 -5 -12l-123 -101q-11 -9 -19.5 -13t-22.5 -4h-60q-16 0 -16 16q0 6 5 13l85 102q11 12 18 15.5z" />
    <glyph glyph-name="Obreve" unicode="&#x14e;" horiz-adv-x="696" 
d="M562 635q74 -75 80 -196q2 -46 2 -80q0 -45 -2 -99q-6 -120 -80 -195t-214 -75t-214 75t-80 195q-2 54 -2 99q0 34 2 80q6 120 80 195.5t214 75.5t214 -75zM235.5 545q-42.5 -40 -46.5 -111q-2 -50 -2 -84q0 -35 2 -85q4 -71 46.5 -110.5t112.5 -39.5t112.5 39.5
t46.5 110.5q2 25 2 85q0 59 -2 84q-4 71 -46.5 111t-112.5 40t-112.5 -40zM204 894.5q5 5.5 14 5.5h57q9 0 14 -5.5t5 -13.5q0 -23 14 -36.5t40 -13.5t40 13.5t14 36.5q0 8 5 13.5t14 5.5h57q9 0 14 -5.5t5 -13.5q0 -55 -35.5 -95.5t-113.5 -40.5t-113.5 40.5t-35.5 95.5
q0 8 5 13.5z" />
    <glyph glyph-name="Ocircumflex" unicode="&#xd4;" horiz-adv-x="696" 
d="M562 635q74 -75 80 -196q2 -46 2 -80q0 -45 -2 -99q-6 -120 -80 -195t-214 -75t-214 75t-80 195q-2 54 -2 99q0 34 2 80q6 120 80 195.5t214 75.5t214 -75zM235.5 545q-42.5 -40 -46.5 -111q-2 -50 -2 -84q0 -35 2 -85q4 -71 46.5 -110.5t112.5 -39.5t112.5 39.5
t46.5 110.5q2 25 2 85q0 59 -2 84q-4 71 -46.5 111t-112.5 40t-112.5 -40zM402 896q8 -4 18 -15l92 -102q5 -5 5 -13q0 -16 -16 -16h-48q-9 0 -15 2.5t-16 8.5l-74 47l-74 -47q-10 -6 -16 -8.5t-15 -2.5h-48q-16 0 -16 16q0 8 5 13l92 102q10 11 18 15t19 4h70q11 0 19 -4z
" />
    <glyph glyph-name="Odieresis" unicode="&#xd6;" horiz-adv-x="696" 
d="M562 635q74 -75 80 -196q2 -46 2 -80q0 -45 -2 -99q-6 -120 -80 -195t-214 -75t-214 75t-80 195q-2 54 -2 99q0 34 2 80q6 120 80 195.5t214 75.5t214 -75zM235.5 545q-42.5 -40 -46.5 -111q-2 -50 -2 -84q0 -35 2 -85q4 -71 46.5 -110.5t112.5 -39.5t112.5 39.5
t46.5 110.5q2 25 2 85q0 59 -2 84q-4 71 -46.5 111t-112.5 40t-112.5 -40zM290 884q8 -8 8 -19v-88q0 -11 -8 -19t-19 -8h-83q-11 0 -19 8t-8 19v88q0 11 8 19t19 8h83q11 0 19 -8zM527 884q8 -8 8 -19v-88q0 -11 -8 -19t-19 -8h-83q-11 0 -19 8t-8 19v88q0 11 8 19t19 8h83
q11 0 19 -8z" />
    <glyph glyph-name="Ograve" unicode="&#xd2;" horiz-adv-x="696" 
d="M562 635q74 -75 80 -196q2 -46 2 -80q0 -45 -2 -99q-6 -120 -80 -195t-214 -75t-214 75t-80 195q-2 54 -2 99q0 34 2 80q6 120 80 195.5t214 75.5t214 -75zM235.5 545q-42.5 -40 -46.5 -111q-2 -50 -2 -84q0 -35 2 -85q4 -71 46.5 -110.5t112.5 -39.5t112.5 39.5
t46.5 110.5q2 25 2 85q0 59 -2 84q-4 71 -46.5 111t-112.5 40t-112.5 -40zM409 766q0 -16 -16 -16h-60q-14 0 -22.5 4t-19.5 13l-123 101q-5 5 -5 12q0 9 5 14.5t14 5.5h100q12 0 19 -3.5t18 -15.5l85 -102q5 -7 5 -13z" />
    <glyph glyph-name="Ohungarumlaut" unicode="&#x150;" horiz-adv-x="696" 
d="M562 635q74 -75 80 -196q2 -46 2 -80q0 -45 -2 -99q-6 -120 -80 -195t-214 -75t-214 75t-80 195q-2 54 -2 99q0 34 2 80q6 120 80 195.5t214 75.5t214 -75zM235.5 545q-42.5 -40 -46.5 -111q-2 -50 -2 -84q0 -35 2 -85q4 -71 46.5 -110.5t112.5 -39.5t112.5 39.5
t46.5 110.5q2 25 2 85q0 59 -2 84q-4 71 -46.5 111t-112.5 40t-112.5 -40zM256.5 895.5q8.5 4.5 23.5 4.5h98q9 0 14.5 -5t5.5 -14q0 -7 -6 -13l-96 -104q-12 -14 -34 -14h-53q-16 0 -16 16q0 5 5 15l45 100q5 10 13.5 14.5zM462.5 895.5q8.5 4.5 23.5 4.5h98q9 0 14.5 -5
t5.5 -14q0 -7 -6 -13l-96 -104q-12 -14 -34 -14h-53q-16 0 -16 16q0 5 5 15l45 100q5 10 13.5 14.5z" />
    <glyph glyph-name="Omacron" unicode="&#x14c;" horiz-adv-x="696" 
d="M562 635q74 -75 80 -196q2 -46 2 -80q0 -45 -2 -99q-6 -120 -80 -195t-214 -75t-214 75t-80 195q-2 54 -2 99q0 34 2 80q6 120 80 195.5t214 75.5t214 -75zM235.5 545q-42.5 -40 -46.5 -111q-2 -50 -2 -84q0 -35 2 -85q4 -71 46.5 -110.5t112.5 -39.5t112.5 39.5
t46.5 110.5q2 25 2 85q0 59 -2 84q-4 71 -46.5 111t-112.5 40t-112.5 -40zM190 758q-8 8 -8 19v66q0 11 8 19t19 8h279q11 0 19 -8t8 -19v-66q0 -11 -8 -19t-19 -8h-279q-11 0 -19 8z" />
    <glyph glyph-name="Oslash" unicode="&#xd8;" horiz-adv-x="728" 
d="M550 656.5q71 -53.5 95 -143.5l35 14q8 3 11 3q9 0 15 -6t6 -15v-48q0 -13 -5 -20.5t-17 -12.5l-32 -13v-46q0 -79 -1 -109q-6 -120 -80 -195t-214 -75q-118 0 -189 54t-95 145l-33 -13q-7 -3 -11 -3q-9 0 -15 6t-6 15v48q0 14 5 21.5t17 11.5l32 12q-1 22 -1 71
q0 58 2 81q6 120 80 195.5t214 75.5q116 0 187 -53.5zM518 464q-11 58 -52 89.5t-103 31.5q-70 0 -112.5 -40t-46.5 -111q-2 -28 -2 -94zM207 239q10 -60 51.5 -92t104.5 -32q70 0 112.5 39.5t46.5 110.5q3 76 2 98z" />
    <glyph glyph-name="Oslashacute" unicode="&#x1fe;" horiz-adv-x="728" 
d="M410 896.5q7 3.5 19 3.5h100q9 0 14 -5.5t5 -14.5q0 -7 -5 -12l-123 -101q-11 -9 -19.5 -13t-22.5 -4h-60q-16 0 -16 16q0 6 5 13l85 102q11 12 18 15.5zM550 656.5q71 -53.5 95 -143.5l35 14q8 3 11 3q9 0 15 -6t6 -15v-48q0 -13 -5 -20.5t-17 -12.5l-32 -13v-46
q0 -79 -1 -109q-6 -120 -80 -195t-214 -75q-118 0 -189 54t-95 145l-33 -13q-7 -3 -11 -3q-9 0 -15 6t-6 15v48q0 14 5 21.5t17 11.5l32 12q-1 22 -1 71q0 58 2 81q6 120 80 195.5t214 75.5q116 0 187 -53.5zM518 464q-11 58 -52 89.5t-103 31.5q-70 0 -112.5 -40
t-46.5 -111q-2 -28 -2 -94zM207 239q10 -60 51.5 -92t104.5 -32q70 0 112.5 39.5t46.5 110.5q3 76 2 98z" />
    <glyph glyph-name="Otilde" unicode="&#xd5;" horiz-adv-x="696" 
d="M562 635q74 -75 80 -196q2 -46 2 -80q0 -45 -2 -99q-6 -120 -80 -195t-214 -75t-214 75t-80 195q-2 54 -2 99q0 34 2 80q6 120 80 195.5t214 75.5t214 -75zM235.5 545q-42.5 -40 -46.5 -111q-2 -50 -2 -84q0 -35 2 -85q4 -71 46.5 -110.5t112.5 -39.5t112.5 39.5
t46.5 110.5q2 25 2 85q0 59 -2 84q-4 71 -46.5 111t-112.5 40t-112.5 -40zM278.5 775q-5.5 -4 -10.5 -12q-4 -7 -8 -10t-11 -3h-56q-9 0 -14 5.5t-5 13.5q0 26 13 53t36.5 45t55.5 18q27 0 44.5 -5.5t35.5 -15.5q12 -7 21.5 -10t20.5 -3t16.5 4t10.5 12q4 7 8 10t11 3h56
q9 0 14 -5.5t5 -13.5q0 -26 -13 -53t-36.5 -45t-55.5 -18q-27 0 -44.5 5.5t-35.5 15.5q-12 7 -21.5 10t-20.5 3t-16.5 -4z" />
    <glyph glyph-name="OE" unicode="&#x152;" horiz-adv-x="979" 
d="M917 692q8 -8 8 -19v-71q0 -11 -8 -19t-19 -8h-323v-159h301q11 0 19 -8t8 -19v-71q0 -11 -8 -19t-19 -8h-301v-166h331q11 0 19 -8t8 -19v-71q0 -11 -8 -19t-19 -8h-559q-140 0 -213 72.5t-81 203.5q-2 50 -2 74t2 74q8 131 82 203.5t217 72.5h546q11 0 19 -8z
M232.5 166q40.5 -41 119.5 -41h88v450h-83q-82 0 -123.5 -41t-45.5 -110q-2 -50 -2 -74t2 -74q4 -69 44.5 -110z" />
    <glyph glyph-name="P" unicode="P" horiz-adv-x="659" 
d="M561 642.5q67 -57.5 67 -166.5t-67 -167.5t-188 -58.5h-160v-223q0 -11 -8 -19t-19 -8h-81q-11 0 -19 8t-8 19v646q0 11 8 19t19 8h268q121 0 188 -57.5zM368 375q60 0 92.5 23.5t32.5 77.5t-32 76.5t-93 22.5h-155v-200h155z" />
    <glyph glyph-name="Thorn" unicode="&#xde;" horiz-adv-x="662" 
d="M373 576q121 0 188 -57.5t67 -166.5t-67 -167.5t-188 -58.5h-160v-99q0 -11 -8 -19t-19 -8h-81q-11 0 -19 8t-8 19v646q0 11 8 19t19 8h81q11 0 19 -8t8 -19v-97h160zM368 251q60 0 92.5 23.5t32.5 77.5t-32 76.5t-93 22.5h-155v-200h155z" />
    <glyph glyph-name="Q" unicode="Q" horiz-adv-x="696" 
d="M561 635q74 -75 80 -196q2 -46 2 -80q0 -45 -2 -99q-7 -117 -71 -186l75 -108q3 -5 3 -9v-2q0 -9 -6 -14.5t-15 -5.5h-95q-15 1 -23.5 7.5t-16.5 17.5l-32 46q-53 -16 -113 -16q-140 0 -214 75t-80 195q-2 54 -2 99q0 34 2 80q6 120 80 195.5t214 75.5t214 -75z
M234.5 545q-42.5 -40 -46.5 -111q-2 -50 -2 -84q0 -35 2 -85q4 -71 46.5 -110.5t112.5 -39.5t112.5 39.5t46.5 110.5q2 25 2 85q0 59 -2 84q-4 71 -46.5 111t-112.5 40t-112.5 -40z" />
    <glyph glyph-name="R" unicode="R" horiz-adv-x="670" 
d="M552 642q66 -58 66 -161q0 -73 -34 -124.5t-98 -76.5l138 -247q3 -6 3 -11q0 -9 -6.5 -15.5t-15.5 -6.5h-85q-29 0 -43 27l-131 233h-133v-233q0 -11 -8 -19t-19 -8h-81q-11 0 -19 8t-8 19v646q0 11 8 19t19 8h258q123 0 189 -58zM358 385q61 0 93 21.5t32 74.5
t-31.5 73.5t-93.5 20.5h-145v-190h145z" />
    <glyph glyph-name="Racute" unicode="&#x154;" horiz-adv-x="670" 
d="M552 642q66 -58 66 -161q0 -73 -34 -124.5t-98 -76.5l138 -247q3 -6 3 -11q0 -9 -6.5 -15.5t-15.5 -6.5h-85q-29 0 -43 27l-131 233h-133v-233q0 -11 -8 -19t-19 -8h-81q-11 0 -19 8t-8 19v646q0 11 8 19t19 8h258q123 0 189 -58zM358 385q61 0 93 21.5t32 74.5
t-31.5 73.5t-93.5 20.5h-145v-190h145zM374 896.5q7 3.5 19 3.5h100q9 0 14 -5.5t5 -14.5q0 -7 -5 -12l-123 -101q-11 -9 -19.5 -13t-22.5 -4h-60q-16 0 -16 16q0 6 5 13l85 102q11 12 18 15.5z" />
    <glyph glyph-name="Rcaron" unicode="&#x158;" horiz-adv-x="670" 
d="M552 642q66 -58 66 -161q0 -73 -34 -124.5t-98 -76.5l138 -247q3 -6 3 -11q0 -9 -6.5 -15.5t-15.5 -6.5h-85q-29 0 -43 27l-131 233h-133v-233q0 -11 -8 -19t-19 -8h-81q-11 0 -19 8t-8 19v646q0 11 8 19t19 8h258q123 0 189 -58zM358 385q61 0 93 21.5t32 74.5
t-31.5 73.5t-93.5 20.5h-145v-190h145zM268 754q-8 4 -18 15l-92 102q-5 5 -5 13q0 16 16 16h48q9 0 15 -2.5t16 -8.5l74 -47l74 47q10 6 16 8.5t15 2.5h48q16 0 16 -16q0 -8 -5 -13l-92 -102q-10 -11 -18 -15t-19 -4h-70q-11 0 -19 4z" />
    <glyph glyph-name="Rcommaaccent" unicode="&#x156;" horiz-adv-x="670" 
d="M552 642q66 -58 66 -161q0 -73 -34 -124.5t-98 -76.5l138 -247q3 -6 3 -11q0 -9 -6.5 -15.5t-15.5 -6.5h-85q-29 0 -43 27l-131 233h-133v-233q0 -11 -8 -19t-19 -8h-81q-11 0 -19 8t-8 19v646q0 11 8 19t19 8h258q123 0 189 -58zM358 385q61 0 93 21.5t32 74.5
t-31.5 73.5t-93.5 20.5h-145v-190h145zM271.5 -61.5q10.5 11.5 29.5 11.5h87q9 0 15.5 -6.5t6.5 -15.5q0 -4 -1 -7l-55 -139q-12 -32 -43 -32h-52q-9 0 -15.5 6.5t-6.5 15.5v2l21 137q3 16 13.5 27.5z" />
    <glyph glyph-name="S" unicode="S" horiz-adv-x="648" 
d="M585 506.5q-8 -7.5 -20 -7.5h-70q-16 0 -25 6t-16 18q-17 28 -49 45t-87 17q-54 0 -91 -22t-37 -59q0 -30 17.5 -46.5t54.5 -27.5t121 -29q121 -26 175 -73t54 -129q0 -60 -35 -107.5t-100.5 -74.5t-153.5 -27q-75 0 -140 24t-105 68.5t-43 101.5q-1 12 7 19.5t20 7.5h70
q16 0 25.5 -6t15.5 -18q17 -33 49.5 -52.5t100.5 -19.5q66 0 110 21t44 63q0 24 -17 38.5t-48 24t-94 24.5q-25 5 -65 15q-105 26 -151.5 71t-46.5 132q0 59 34.5 106t94.5 73.5t134 26.5q84 0 145.5 -28.5t93.5 -71.5t35 -84q1 -12 -7 -19.5z" />
    <glyph glyph-name="Sacute" unicode="&#x15a;" horiz-adv-x="648" 
d="M585 506.5q-8 -7.5 -20 -7.5h-70q-16 0 -25 6t-16 18q-17 28 -49 45t-87 17q-54 0 -91 -22t-37 -59q0 -30 17.5 -46.5t54.5 -27.5t121 -29q121 -26 175 -73t54 -129q0 -60 -35 -107.5t-100.5 -74.5t-153.5 -27q-75 0 -140 24t-105 68.5t-43 101.5q-1 12 7 19.5t20 7.5h70
q16 0 25.5 -6t15.5 -18q17 -33 49.5 -52.5t100.5 -19.5q66 0 110 21t44 63q0 24 -17 38.5t-48 24t-94 24.5q-25 5 -65 15q-105 26 -151.5 71t-46.5 132q0 59 34.5 106t94.5 73.5t134 26.5q84 0 145.5 -28.5t93.5 -71.5t35 -84q1 -12 -7 -19.5zM367 896.5q7 3.5 19 3.5h100
q9 0 14 -5.5t5 -14.5q0 -7 -5 -12l-123 -101q-11 -9 -19.5 -13t-22.5 -4h-60q-16 0 -16 16q0 6 5 13l85 102q11 12 18 15.5z" />
    <glyph glyph-name="Scaron" unicode="&#x160;" horiz-adv-x="648" 
d="M585 506.5q-8 -7.5 -20 -7.5h-70q-16 0 -25 6t-16 18q-17 28 -49 45t-87 17q-54 0 -91 -22t-37 -59q0 -30 17.5 -46.5t54.5 -27.5t121 -29q121 -26 175 -73t54 -129q0 -60 -35 -107.5t-100.5 -74.5t-153.5 -27q-75 0 -140 24t-105 68.5t-43 101.5q-1 12 7 19.5t20 7.5h70
q16 0 25.5 -6t15.5 -18q17 -33 49.5 -52.5t100.5 -19.5q66 0 110 21t44 63q0 24 -17 38.5t-48 24t-94 24.5q-25 5 -65 15q-105 26 -151.5 71t-46.5 132q0 59 34.5 106t94.5 73.5t134 26.5q84 0 145.5 -28.5t93.5 -71.5t35 -84q1 -12 -7 -19.5zM269 754q-8 4 -18 15l-92 102
q-5 5 -5 13q0 16 16 16h48q9 0 15 -2.5t16 -8.5l74 -47l74 47q10 6 16 8.5t15 2.5h48q16 0 16 -16q0 -8 -5 -13l-92 -102q-10 -11 -18 -15t-19 -4h-70q-11 0 -19 4z" />
    <glyph glyph-name="Scedilla" unicode="&#x15e;" horiz-adv-x="648" 
d="M585 506.5q-8 -7.5 -20 -7.5h-70q-16 0 -25 6t-16 18q-17 28 -49 45t-87 17q-54 0 -91 -22t-37 -59q0 -30 17.5 -46.5t54.5 -27.5t121 -29q121 -26 175 -73t54 -129q0 -60 -34.5 -107t-99.5 -74.5t-152 -27.5l-21 -46q16 10 35 10q38 0 57 -23.5t19 -62.5q0 -38 -26 -63
t-73 -25q-30 0 -56 13t-26 27q0 7 5 11l14 13q8 7 14 7q4 0 17 -7.5t32 -7.5q18 0 28 8.5t10 23.5q0 30 -38 30q-9 0 -21.5 -5t-18.5 -5q-8 0 -14 6l-16 18l-5.5 7.5t-2.5 7.5q0 6 6 18l22 49q-97 12 -162.5 63.5t-69.5 126.5q-1 12 7 19.5t20 7.5h70q16 0 25.5 -6t15.5 -18
q17 -33 49.5 -52.5t100.5 -19.5q66 0 110 21t44 63q0 24 -17 38.5t-48 24t-94 24.5q-25 5 -65 15q-105 26 -151.5 71t-46.5 132q0 59 34.5 106t94.5 73.5t134 26.5q84 0 145.5 -28.5t93.5 -71.5t35 -84q1 -12 -7 -19.5z" />
    <glyph glyph-name="Scircumflex" unicode="&#x15c;" horiz-adv-x="648" 
d="M585 506.5q-8 -7.5 -20 -7.5h-70q-16 0 -25 6t-16 18q-17 28 -49 45t-87 17q-54 0 -91 -22t-37 -59q0 -30 17.5 -46.5t54.5 -27.5t121 -29q121 -26 175 -73t54 -129q0 -60 -35 -107.5t-100.5 -74.5t-153.5 -27q-75 0 -140 24t-105 68.5t-43 101.5q-1 12 7 19.5t20 7.5h70
q16 0 25.5 -6t15.5 -18q17 -33 49.5 -52.5t100.5 -19.5q66 0 110 21t44 63q0 24 -17 38.5t-48 24t-94 24.5q-25 5 -65 15q-105 26 -151.5 71t-46.5 132q0 59 34.5 106t94.5 73.5t134 26.5q84 0 145.5 -28.5t93.5 -71.5t35 -84q1 -12 -7 -19.5zM377 896q8 -4 18 -15l92 -102
q5 -5 5 -13q0 -16 -16 -16h-48q-9 0 -15 2.5t-16 8.5l-74 47l-74 -47q-10 -6 -16 -8.5t-15 -2.5h-48q-16 0 -16 16q0 8 5 13l92 102q10 11 18 15t19 4h70q11 0 19 -4z" />
    <glyph glyph-name="Scommaaccent" unicode="&#x218;" horiz-adv-x="648" 
d="M585 506.5q-8 -7.5 -20 -7.5h-70q-16 0 -25 6t-16 18q-17 28 -49 45t-87 17q-54 0 -91 -22t-37 -59q0 -30 17.5 -46.5t54.5 -27.5t121 -29q121 -26 175 -73t54 -129q0 -60 -35 -107.5t-100.5 -74.5t-153.5 -27q-75 0 -140 24t-105 68.5t-43 101.5q-1 12 7 19.5t20 7.5h70
q16 0 25.5 -6t15.5 -18q17 -33 49.5 -52.5t100.5 -19.5q66 0 110 21t44 63q0 24 -17 38.5t-48 24t-94 24.5q-25 5 -65 15q-105 26 -151.5 71t-46.5 132q0 59 34.5 106t94.5 73.5t134 26.5q84 0 145.5 -28.5t93.5 -71.5t35 -84q1 -12 -7 -19.5zM254.5 -61.5
q10.5 11.5 29.5 11.5h87q9 0 15.5 -6.5t6.5 -15.5q0 -4 -1 -7l-55 -139q-12 -32 -43 -32h-52q-9 0 -15.5 6.5t-6.5 15.5v2l21 137q3 16 13.5 27.5z" />
    <glyph glyph-name="T" unicode="T" horiz-adv-x="593" 
d="M563 692q8 -8 8 -19v-71q0 -11 -8 -19t-19 -8h-180v-548q0 -11 -8 -19t-19 -8h-81q-11 0 -19 8t-8 19v548h-180q-11 0 -19 8t-8 19v71q0 11 8 19t19 8h495q11 0 19 -8z" />
    <glyph glyph-name="Tbar" unicode="&#x166;" horiz-adv-x="604" 
d="M569 692q8 -8 8 -19v-71q0 -11 -8 -19t-19 -8h-180v-157h104q11 0 19 -8t8 -19v-63q0 -11 -8 -19t-19 -8h-104v-274q0 -11 -8 -19t-19 -8h-81q-11 0 -19 8t-8 19v274h-106q-11 0 -19 8t-8 19v63q0 11 8 19t19 8h106v157h-180q-11 0 -19 8t-8 19v71q0 11 8 19t19 8h495
q11 0 19 -8z" />
    <glyph glyph-name="Tcaron" unicode="&#x164;" horiz-adv-x="593" 
d="M563 692q8 -8 8 -19v-71q0 -11 -8 -19t-19 -8h-180v-548q0 -11 -8 -19t-19 -8h-81q-11 0 -19 8t-8 19v548h-180q-11 0 -19 8t-8 19v71q0 11 8 19t19 8h495q11 0 19 -8zM242 754q-8 4 -18 15l-92 102q-5 5 -5 13q0 16 16 16h48q9 0 15 -2.5t16 -8.5l74 -47l74 47
q10 6 16 8.5t15 2.5h48q16 0 16 -16q0 -8 -5 -13l-92 -102q-10 -11 -18 -15t-19 -4h-70q-11 0 -19 4z" />
    <glyph glyph-name="uni021A" unicode="&#x21a;" horiz-adv-x="593" 
d="M563 692q8 -8 8 -19v-71q0 -11 -8 -19t-19 -8h-180v-548q0 -11 -8 -19t-19 -8h-81q-11 0 -19 8t-8 19v548h-180q-11 0 -19 8t-8 19v71q0 11 8 19t19 8h495q11 0 19 -8zM225.5 -61.5q10.5 11.5 29.5 11.5h87q9 0 15.5 -6.5t6.5 -15.5q0 -4 -1 -7l-55 -139q-12 -32 -43 -32
h-52q-9 0 -15.5 6.5t-6.5 15.5v2l21 137q3 16 13.5 27.5z" />
    <glyph glyph-name="U" unicode="U" horiz-adv-x="719" 
d="M638 692q8 -8 8 -19v-410q0 -126 -74 -199.5t-213 -73.5q-140 0 -213 73t-73 200v410q0 11 8 19t19 8h81q11 0 19 -8t8 -19v-405q0 -79 40 -116t111 -37t112 37t41 116v405q0 11 8 19t19 8h80q11 0 19 -8z" />
    <glyph glyph-name="Uacute" unicode="&#xda;" horiz-adv-x="719" 
d="M638 692q8 -8 8 -19v-410q0 -126 -74 -199.5t-213 -73.5q-140 0 -213 73t-73 200v410q0 11 8 19t19 8h81q11 0 19 -8t8 -19v-405q0 -79 40 -116t111 -37t112 37t41 116v405q0 11 8 19t19 8h80q11 0 19 -8zM403 896.5q7 3.5 19 3.5h100q9 0 14 -5.5t5 -14.5q0 -7 -5 -12
l-123 -101q-11 -9 -19.5 -13t-22.5 -4h-60q-16 0 -16 16q0 6 5 13l85 102q11 12 18 15.5z" />
    <glyph glyph-name="Ubreve" unicode="&#x16c;" horiz-adv-x="719" 
d="M638 692q8 -8 8 -19v-410q0 -126 -74 -199.5t-213 -73.5q-140 0 -213 73t-73 200v410q0 11 8 19t19 8h81q11 0 19 -8t8 -19v-405q0 -79 40 -116t111 -37t112 37t41 116v405q0 11 8 19t19 8h80q11 0 19 -8zM215 894.5q5 5.5 14 5.5h57q9 0 14 -5.5t5 -13.5q0 -23 14 -36.5
t40 -13.5t40 13.5t14 36.5q0 8 5 13.5t14 5.5h57q9 0 14 -5.5t5 -13.5q0 -55 -35.5 -95.5t-113.5 -40.5t-113.5 40.5t-35.5 95.5q0 8 5 13.5z" />
    <glyph glyph-name="Ucircumflex" unicode="&#xdb;" horiz-adv-x="719" 
d="M638 692q8 -8 8 -19v-410q0 -126 -74 -199.5t-213 -73.5q-140 0 -213 73t-73 200v410q0 11 8 19t19 8h81q11 0 19 -8t8 -19v-405q0 -79 40 -116t111 -37t112 37t41 116v405q0 11 8 19t19 8h80q11 0 19 -8zM413 896q8 -4 18 -15l92 -102q5 -5 5 -13q0 -16 -16 -16h-48
q-9 0 -15 2.5t-16 8.5l-74 47l-74 -47q-10 -6 -16 -8.5t-15 -2.5h-48q-16 0 -16 16q0 8 5 13l92 102q10 11 18 15t19 4h70q11 0 19 -4z" />
    <glyph glyph-name="Udieresis" unicode="&#xdc;" horiz-adv-x="719" 
d="M638 692q8 -8 8 -19v-410q0 -126 -74 -199.5t-213 -73.5q-140 0 -213 73t-73 200v410q0 11 8 19t19 8h81q11 0 19 -8t8 -19v-405q0 -79 40 -116t111 -37t112 37t41 116v405q0 11 8 19t19 8h80q11 0 19 -8zM301 884q8 -8 8 -19v-88q0 -11 -8 -19t-19 -8h-83q-11 0 -19 8
t-8 19v88q0 11 8 19t19 8h83q11 0 19 -8zM538 884q8 -8 8 -19v-88q0 -11 -8 -19t-19 -8h-83q-11 0 -19 8t-8 19v88q0 11 8 19t19 8h83q11 0 19 -8z" />
    <glyph glyph-name="Ugrave" unicode="&#xd9;" horiz-adv-x="719" 
d="M638 692q8 -8 8 -19v-410q0 -126 -74 -199.5t-213 -73.5q-140 0 -213 73t-73 200v410q0 11 8 19t19 8h81q11 0 19 -8t8 -19v-405q0 -79 40 -116t111 -37t112 37t41 116v405q0 11 8 19t19 8h80q11 0 19 -8zM423 766q0 -16 -16 -16h-60q-14 0 -22.5 4t-19.5 13l-123 101
q-5 5 -5 12q0 9 5 14.5t14 5.5h100q12 0 19 -3.5t18 -15.5l85 -102q5 -7 5 -13z" />
    <glyph glyph-name="Uhungarumlaut" unicode="&#x170;" horiz-adv-x="719" 
d="M638 692q8 -8 8 -19v-410q0 -126 -74 -199.5t-213 -73.5q-140 0 -213 73t-73 200v410q0 11 8 19t19 8h81q11 0 19 -8t8 -19v-405q0 -79 40 -116t111 -37t112 37t41 116v405q0 11 8 19t19 8h80q11 0 19 -8zM266.5 895.5q8.5 4.5 23.5 4.5h98q9 0 14.5 -5t5.5 -14
q0 -7 -6 -13l-96 -104q-12 -14 -34 -14h-53q-16 0 -16 16q0 5 5 15l45 100q5 10 13.5 14.5zM472.5 895.5q8.5 4.5 23.5 4.5h98q9 0 14.5 -5t5.5 -14q0 -7 -6 -13l-96 -104q-12 -14 -34 -14h-53q-16 0 -16 16q0 5 5 15l45 100q5 10 13.5 14.5z" />
    <glyph glyph-name="Umacron" unicode="&#x16a;" horiz-adv-x="719" 
d="M638 692q8 -8 8 -19v-410q0 -126 -74 -199.5t-213 -73.5q-140 0 -213 73t-73 200v410q0 11 8 19t19 8h81q11 0 19 -8t8 -19v-405q0 -79 40 -116t111 -37t112 37t41 116v405q0 11 8 19t19 8h80q11 0 19 -8zM201 758q-8 8 -8 19v66q0 11 8 19t19 8h279q11 0 19 -8t8 -19
v-66q0 -11 -8 -19t-19 -8h-279q-11 0 -19 8z" />
    <glyph glyph-name="Uogonek" unicode="&#x172;" horiz-adv-x="718" 
d="M638 692q8 -8 8 -19v-410q0 -112 -60 -182t-175 -88q-25 -4 -38.5 -17t-13.5 -40q0 -30 16 -47t42 -17h15q10 0 16 -6t6 -16v-48q0 -10 -6 -16t-16 -6h-19q-69 0 -111 42.5t-42 113.5q0 37 10 63q-97 21 -147 90t-50 174v410q0 11 8 19t19 8h81q11 0 19 -8t8 -19v-405
q0 -79 40 -116t111 -37t112 37t41 116v405q0 11 8 19t19 8h80q11 0 19 -8z" />
    <glyph glyph-name="Uring" unicode="&#x16e;" horiz-adv-x="719" 
d="M638 692q8 -8 8 -19v-410q0 -126 -74 -199.5t-213 -73.5q-140 0 -213 73t-73 200v410q0 11 8 19t19 8h81q11 0 19 -8t8 -19v-405q0 -79 40 -116t111 -37t112 37t41 116v405q0 11 8 19t19 8h80q11 0 19 -8zM423 886q26 -24 26 -61t-26 -61t-64 -24t-64 24t-26 61t26 61
t64 24t64 -24zM380.5 803.5q8.5 8.5 8.5 21.5t-8.5 21.5t-21.5 8.5t-21.5 -8.5t-8.5 -21.5t8.5 -21.5t21.5 -8.5t21.5 8.5z" />
    <glyph glyph-name="Utilde" unicode="&#x168;" horiz-adv-x="719" 
d="M638 692q8 -8 8 -19v-410q0 -126 -74 -199.5t-213 -73.5q-140 0 -213 73t-73 200v410q0 11 8 19t19 8h81q11 0 19 -8t8 -19v-405q0 -79 40 -116t111 -37t112 37t41 116v405q0 11 8 19t19 8h80q11 0 19 -8zM289.5 775q-5.5 -4 -10.5 -12q-4 -7 -8 -10t-11 -3h-56
q-9 0 -14 5.5t-5 13.5q0 26 13 53t36.5 45t55.5 18q27 0 44.5 -5.5t35.5 -15.5q12 -7 21.5 -10t20.5 -3t16.5 4t10.5 12q4 7 8 10t11 3h56q9 0 14 -5.5t5 -13.5q0 -26 -13 -53t-36.5 -45t-55.5 -18q-27 0 -44.5 5.5t-35.5 15.5q-12 7 -21.5 10t-20.5 3t-16.5 -4z" />
    <glyph glyph-name="V" unicode="V" horiz-adv-x="664" 
d="M500 675q9 25 33 25h76q11 0 19 -8t8 -19q0 -4 -2 -10l-224 -629q-6 -18 -14.5 -26t-23.5 -8h-80q-15 0 -23.5 8t-14.5 26l-224 629q-2 6 -2 10q0 11 8 19t19 8h76q24 0 33 -25l168 -477z" />
    <glyph glyph-name="W" unicode="W" horiz-adv-x="802" 
d="M315 34q-5 -17 -13 -25.5t-22 -8.5h-81q-28 0 -35 34l-128 631l-1 8q0 11 8 19t19 8h74q11 0 19.5 -6.5t11.5 -20.5l84 -424l74 267q2 10 10.5 19.5t24.5 9.5h82q16 0 24.5 -9.5t10.5 -19.5l74 -267l84 424q3 14 11.5 20.5t19.5 6.5h74q11 0 19 -8t8 -19l-1 -8l-128 -631
q-7 -34 -35 -34h-81q-14 0 -22 8.5t-13 25.5l-86 299z" />
    <glyph glyph-name="Wacute" unicode="&#x1e82;" horiz-adv-x="802" 
d="M315 34q-5 -17 -13 -25.5t-22 -8.5h-81q-28 0 -35 34l-128 631l-1 8q0 11 8 19t19 8h74q11 0 19.5 -6.5t11.5 -20.5l84 -424l74 267q2 10 10.5 19.5t24.5 9.5h82q16 0 24.5 -9.5t10.5 -19.5l74 -267l84 424q3 14 11.5 20.5t19.5 6.5h74q11 0 19 -8t8 -19l-1 -8l-128 -631
q-7 -34 -35 -34h-81q-14 0 -22 8.5t-13 25.5l-86 299zM447 896.5q7 3.5 19 3.5h100q9 0 14 -5.5t5 -14.5q0 -7 -5 -12l-123 -101q-11 -9 -19.5 -13t-22.5 -4h-60q-16 0 -16 16q0 6 5 13l85 102q11 12 18 15.5z" />
    <glyph glyph-name="Wcircumflex" unicode="&#x174;" horiz-adv-x="802" 
d="M315 34q-5 -17 -13 -25.5t-22 -8.5h-81q-28 0 -35 34l-128 631l-1 8q0 11 8 19t19 8h74q11 0 19.5 -6.5t11.5 -20.5l84 -424l74 267q2 10 10.5 19.5t24.5 9.5h82q16 0 24.5 -9.5t10.5 -19.5l74 -267l84 424q3 14 11.5 20.5t19.5 6.5h74q11 0 19 -8t8 -19l-1 -8l-128 -631
q-7 -34 -35 -34h-81q-14 0 -22 8.5t-13 25.5l-86 299zM455 896q8 -4 18 -15l92 -102q5 -5 5 -13q0 -16 -16 -16h-48q-9 0 -15 2.5t-16 8.5l-74 47l-74 -47q-10 -6 -16 -8.5t-15 -2.5h-48q-16 0 -16 16q0 8 5 13l92 102q10 11 18 15t19 4h70q11 0 19 -4z" />
    <glyph glyph-name="Wdieresis" unicode="&#x1e84;" horiz-adv-x="802" 
d="M315 34q-5 -17 -13 -25.5t-22 -8.5h-81q-28 0 -35 34l-128 631l-1 8q0 11 8 19t19 8h74q11 0 19.5 -6.5t11.5 -20.5l84 -424l74 267q2 10 10.5 19.5t24.5 9.5h82q16 0 24.5 -9.5t10.5 -19.5l74 -267l84 424q3 14 11.5 20.5t19.5 6.5h74q11 0 19 -8t8 -19l-1 -8l-128 -631
q-7 -34 -35 -34h-81q-14 0 -22 8.5t-13 25.5l-86 299zM343 884q8 -8 8 -19v-88q0 -11 -8 -19t-19 -8h-83q-11 0 -19 8t-8 19v88q0 11 8 19t19 8h83q11 0 19 -8zM580 884q8 -8 8 -19v-88q0 -11 -8 -19t-19 -8h-83q-11 0 -19 8t-8 19v88q0 11 8 19t19 8h83q11 0 19 -8z" />
    <glyph glyph-name="Wgrave" unicode="&#x1e80;" horiz-adv-x="802" 
d="M315 34q-5 -17 -13 -25.5t-22 -8.5h-81q-28 0 -35 34l-128 631l-1 8q0 11 8 19t19 8h74q11 0 19.5 -6.5t11.5 -20.5l84 -424l74 267q2 10 10.5 19.5t24.5 9.5h82q16 0 24.5 -9.5t10.5 -19.5l74 -267l84 424q3 14 11.5 20.5t19.5 6.5h74q11 0 19 -8t8 -19l-1 -8l-128 -631
q-7 -34 -35 -34h-81q-14 0 -22 8.5t-13 25.5l-86 299zM460 766q0 -16 -16 -16h-60q-14 0 -22.5 4t-19.5 13l-123 101q-5 5 -5 12q0 9 5 14.5t14 5.5h100q12 0 19 -3.5t18 -15.5l85 -102q5 -7 5 -13z" />
    <glyph glyph-name="X" unicode="X" horiz-adv-x="663" 
d="M505.5 7q-8.5 7 -16.5 18l-159 221l-158 -221q-8 -11 -16.5 -18t-25.5 -7h-84q-11 0 -19 8t-8 19q0 5 3 11l229 319l-219 305q-3 6 -3 11q0 11 8 19t19 8h84q17 0 25.5 -7t16.5 -18l151 -211l150 211q8 11 16.5 18t25.5 7h84q11 0 19 -8t8 -19q0 -5 -3 -11l-221 -309
l227 -315q3 -6 3 -11q0 -11 -8 -19t-19 -8h-84q-17 0 -25.5 7z" />
    <glyph glyph-name="Y" unicode="Y" horiz-adv-x="662" 
d="M629 692q8 -8 8 -19q0 -5 -2 -9l-237 -417v-220q0 -11 -8 -19t-19 -8h-80q-11 0 -19 8t-8 19v220l-237 417q-2 4 -2 9q0 11 8 19t19 8h75q17 0 27.5 -8.5t14.5 -16.5l162 -283l162 283q4 8 14.5 16.5t27.5 8.5h75q11 0 19 -8z" />
    <glyph glyph-name="Yacute" unicode="&#xdd;" horiz-adv-x="662" 
d="M629 692q8 -8 8 -19q0 -5 -2 -9l-237 -417v-220q0 -11 -8 -19t-19 -8h-80q-11 0 -19 8t-8 19v220l-237 417q-2 4 -2 9q0 11 8 19t19 8h75q17 0 27.5 -8.5t14.5 -16.5l162 -283l162 283q4 8 14.5 16.5t27.5 8.5h75q11 0 19 -8zM382 896.5q7 3.5 19 3.5h100q9 0 14 -5.5
t5 -14.5q0 -7 -5 -12l-123 -101q-11 -9 -19.5 -13t-22.5 -4h-60q-16 0 -16 16q0 6 5 13l85 102q11 12 18 15.5z" />
    <glyph glyph-name="Ycircumflex" unicode="&#x176;" horiz-adv-x="662" 
d="M629 692q8 -8 8 -19q0 -5 -2 -9l-237 -417v-220q0 -11 -8 -19t-19 -8h-80q-11 0 -19 8t-8 19v220l-237 417q-2 4 -2 9q0 11 8 19t19 8h75q17 0 27.5 -8.5t14.5 -16.5l162 -283l162 283q4 8 14.5 16.5t27.5 8.5h75q11 0 19 -8zM385 896q8 -4 18 -15l92 -102q5 -5 5 -13
q0 -16 -16 -16h-48q-9 0 -15 2.5t-16 8.5l-74 47l-74 -47q-10 -6 -16 -8.5t-15 -2.5h-48q-16 0 -16 16q0 8 5 13l92 102q10 11 18 15t19 4h70q11 0 19 -4z" />
    <glyph glyph-name="Ydieresis" unicode="&#x178;" horiz-adv-x="662" 
d="M629 692q8 -8 8 -19q0 -5 -2 -9l-237 -417v-220q0 -11 -8 -19t-19 -8h-80q-11 0 -19 8t-8 19v220l-237 417q-2 4 -2 9q0 11 8 19t19 8h75q17 0 27.5 -8.5t14.5 -16.5l162 -283l162 283q4 8 14.5 16.5t27.5 8.5h75q11 0 19 -8zM273 884q8 -8 8 -19v-88q0 -11 -8 -19
t-19 -8h-83q-11 0 -19 8t-8 19v88q0 11 8 19t19 8h83q11 0 19 -8zM510 884q8 -8 8 -19v-88q0 -11 -8 -19t-19 -8h-83q-11 0 -19 8t-8 19v88q0 11 8 19t19 8h83q11 0 19 -8z" />
    <glyph glyph-name="Ygrave" unicode="&#x1ef2;" horiz-adv-x="662" 
d="M629 692q8 -8 8 -19q0 -5 -2 -9l-237 -417v-220q0 -11 -8 -19t-19 -8h-80q-11 0 -19 8t-8 19v220l-237 417q-2 4 -2 9q0 11 8 19t19 8h75q17 0 27.5 -8.5t14.5 -16.5l162 -283l162 283q4 8 14.5 16.5t27.5 8.5h75q11 0 19 -8zM394 766q0 -16 -16 -16h-60q-14 0 -22.5 4
t-19.5 13l-123 101q-5 5 -5 12q0 9 5 14.5t14 5.5h100q12 0 19 -3.5t18 -15.5l85 -102q5 -7 5 -13z" />
    <glyph glyph-name="Z" unicode="Z" horiz-adv-x="635" 
d="M587 117q8 -8 8 -19v-71q0 -11 -8 -19t-19 -8h-501q-11 0 -19 8t-8 19v71q0 12 4 19.5t11 15.5l355 442h-333q-11 0 -19 8t-8 19v71q0 11 8 19t19 8h481q11 0 19 -8t8 -19v-71q0 -20 -13 -33l-356 -444h352q11 0 19 -8z" />
    <glyph glyph-name="Zacute" unicode="&#x179;" horiz-adv-x="635" 
d="M587 117q8 -8 8 -19v-71q0 -11 -8 -19t-19 -8h-501q-11 0 -19 8t-8 19v71q0 12 4 19.5t11 15.5l355 442h-333q-11 0 -19 8t-8 19v71q0 11 8 19t19 8h481q11 0 19 -8t8 -19v-71q0 -20 -13 -33l-356 -444h352q11 0 19 -8zM368 896.5q7 3.5 19 3.5h100q9 0 14 -5.5t5 -14.5
q0 -7 -5 -12l-123 -101q-11 -9 -19.5 -13t-22.5 -4h-60q-16 0 -16 16q0 6 5 13l85 102q11 12 18 15.5z" />
    <glyph glyph-name="Zcaron" unicode="&#x17d;" horiz-adv-x="635" 
d="M587 117q8 -8 8 -19v-71q0 -11 -8 -19t-19 -8h-501q-11 0 -19 8t-8 19v71q0 12 4 19.5t11 15.5l355 442h-333q-11 0 -19 8t-8 19v71q0 11 8 19t19 8h481q11 0 19 -8t8 -19v-71q0 -20 -13 -33l-356 -444h352q11 0 19 -8zM263 754q-8 4 -18 15l-92 102q-5 5 -5 13
q0 16 16 16h48q9 0 15 -2.5t16 -8.5l74 -47l74 47q10 6 16 8.5t15 2.5h48q16 0 16 -16q0 -8 -5 -13l-92 -102q-10 -11 -18 -15t-19 -4h-70q-11 0 -19 4z" />
    <glyph glyph-name="Zdotaccent" unicode="&#x17b;" horiz-adv-x="635" 
d="M587 117q8 -8 8 -19v-71q0 -11 -8 -19t-19 -8h-501q-11 0 -19 8t-8 19v71q0 12 4 19.5t11 15.5l355 442h-333q-11 0 -19 8t-8 19v71q0 11 8 19t19 8h481q11 0 19 -8t8 -19v-71q0 -20 -13 -33l-356 -444h352q11 0 19 -8zM380 889q8 -8 8 -19v-93q0 -11 -8 -19t-19 -8h-88
q-11 0 -19 8t-8 19v93q0 11 8 19t19 8h88q11 0 19 -8z" />
    <glyph glyph-name="a" unicode="a" horiz-adv-x="571" 
d="M446.5 476q60.5 -54 60.5 -155v-294q0 -11 -8 -19t-19 -8h-76q-11 0 -19 8t-8 19v33q-23 -32 -63.5 -51t-97.5 -19q-84 0 -133 43.5t-49 112.5q0 67 47.5 106.5t132.5 54.5l163 28q0 38 -25.5 56.5t-68.5 18.5q-23 0 -37.5 -6.5t-28.5 -19.5q-15 -14 -33 -14h-93
q-10 0 -16.5 6.5t-5.5 15.5q6 31 31.5 63t72 53.5t110.5 21.5q103 0 163.5 -54zM377 232l-136 -24q-40 -7 -58.5 -20.5t-18.5 -36.5q0 -20 20.5 -30.5t51.5 -10.5q44 0 76 16t48.5 41.5t16.5 54.5v10z" />
    <glyph glyph-name="aacute" unicode="&#xe1;" horiz-adv-x="571" 
d="M446.5 476q60.5 -54 60.5 -155v-294q0 -11 -8 -19t-19 -8h-76q-11 0 -19 8t-8 19v33q-23 -32 -63.5 -51t-97.5 -19q-84 0 -133 43.5t-49 112.5q0 67 47.5 106.5t132.5 54.5l163 28q0 38 -25.5 56.5t-68.5 18.5q-23 0 -37.5 -6.5t-28.5 -19.5q-15 -14 -33 -14h-93
q-10 0 -16.5 6.5t-5.5 15.5q6 31 31.5 63t72 53.5t110.5 21.5q103 0 163.5 -54zM377 232l-136 -24q-40 -7 -58.5 -20.5t-18.5 -36.5q0 -20 20.5 -30.5t51.5 -10.5q44 0 76 16t48.5 41.5t16.5 54.5v10zM331 741.5q7 3.5 19 3.5h95q9 0 14 -5.5t5 -14.5q0 -7 -5 -12l-123 -101
q-11 -9 -19.5 -13t-22.5 -4h-55q-16 0 -16 16q0 6 5 13l85 102q11 12 18 15.5z" />
    <glyph glyph-name="abreve" unicode="&#x103;" horiz-adv-x="571" 
d="M446.5 476q60.5 -54 60.5 -155v-294q0 -11 -8 -19t-19 -8h-76q-11 0 -19 8t-8 19v33q-23 -32 -63.5 -51t-97.5 -19q-84 0 -133 43.5t-49 112.5q0 67 47.5 106.5t132.5 54.5l163 28q0 38 -25.5 56.5t-68.5 18.5q-23 0 -37.5 -6.5t-28.5 -19.5q-15 -14 -33 -14h-93
q-10 0 -16.5 6.5t-5.5 15.5q6 31 31.5 63t72 53.5t110.5 21.5q103 0 163.5 -54zM377 232l-136 -24q-40 -7 -58.5 -20.5t-18.5 -36.5q0 -20 20.5 -30.5t51.5 -10.5q44 0 76 16t48.5 41.5t16.5 54.5v10zM141 739.5q5 5.5 14 5.5h57q9 0 14 -5.5t5 -13.5q0 -50 49 -50t49 50
q0 8 5 13.5t14 5.5h57q9 0 14 -5.5t5 -13.5q0 -56 -33.5 -96t-110.5 -40t-110.5 40t-33.5 96q0 8 5 13.5z" />
    <glyph glyph-name="acircumflex" unicode="&#xe2;" horiz-adv-x="571" 
d="M446.5 476q60.5 -54 60.5 -155v-294q0 -11 -8 -19t-19 -8h-76q-11 0 -19 8t-8 19v33q-23 -32 -63.5 -51t-97.5 -19q-84 0 -133 43.5t-49 112.5q0 67 47.5 106.5t132.5 54.5l163 28q0 38 -25.5 56.5t-68.5 18.5q-23 0 -37.5 -6.5t-28.5 -19.5q-15 -14 -33 -14h-93
q-10 0 -16.5 6.5t-5.5 15.5q6 31 31.5 63t72 53.5t110.5 21.5q103 0 163.5 -54zM377 232l-136 -24q-40 -7 -58.5 -20.5t-18.5 -36.5q0 -20 20.5 -30.5t51.5 -10.5q44 0 76 16t48.5 41.5t16.5 54.5v10zM329 741q8 -4 18 -15l92 -102q5 -5 5 -13q0 -16 -16 -16h-43
q-9 0 -15 2.5t-16 8.5l-74 47l-74 -47q-10 -6 -16 -8.5t-15 -2.5h-43q-16 0 -16 16q0 8 5 13l92 102q10 11 18 15t19 4h60q11 0 19 -4z" />
    <glyph glyph-name="adieresis" unicode="&#xe4;" horiz-adv-x="571" 
d="M446.5 476q60.5 -54 60.5 -155v-294q0 -11 -8 -19t-19 -8h-76q-11 0 -19 8t-8 19v33q-23 -32 -63.5 -51t-97.5 -19q-84 0 -133 43.5t-49 112.5q0 67 47.5 106.5t132.5 54.5l163 28q0 38 -25.5 56.5t-68.5 18.5q-23 0 -37.5 -6.5t-28.5 -19.5q-15 -14 -33 -14h-93
q-10 0 -16.5 6.5t-5.5 15.5q6 31 31.5 63t72 53.5t110.5 21.5q103 0 163.5 -54zM377 232l-136 -24q-40 -7 -58.5 -20.5t-18.5 -36.5q0 -20 20.5 -30.5t51.5 -10.5q44 0 76 16t48.5 41.5t16.5 54.5v10zM237 729q8 -8 8 -19v-88q0 -11 -8 -19t-19 -8h-83q-11 0 -19 8t-8 19v88
q0 11 8 19t19 8h83q11 0 19 -8zM444 729q8 -8 8 -19v-88q0 -11 -8 -19t-19 -8h-83q-11 0 -19 8t-8 19v88q0 11 8 19t19 8h83q11 0 19 -8z" />
    <glyph glyph-name="agrave" unicode="&#xe0;" horiz-adv-x="571" 
d="M446.5 476q60.5 -54 60.5 -155v-294q0 -11 -8 -19t-19 -8h-76q-11 0 -19 8t-8 19v33q-23 -32 -63.5 -51t-97.5 -19q-84 0 -133 43.5t-49 112.5q0 67 47.5 106.5t132.5 54.5l163 28q0 38 -25.5 56.5t-68.5 18.5q-23 0 -37.5 -6.5t-28.5 -19.5q-15 -14 -33 -14h-93
q-10 0 -16.5 6.5t-5.5 15.5q6 31 31.5 63t72 53.5t110.5 21.5q103 0 163.5 -54zM377 232l-136 -24q-40 -7 -58.5 -20.5t-18.5 -36.5q0 -20 20.5 -30.5t51.5 -10.5q44 0 76 16t48.5 41.5t16.5 54.5v10zM343 611q0 -16 -16 -16h-55q-14 0 -22.5 4t-19.5 13l-123 101
q-5 5 -5 12q0 9 5 14.5t14 5.5h95q12 0 19 -3.5t18 -15.5l85 -102q5 -7 5 -13z" />
    <glyph glyph-name="amacron" unicode="&#x101;" horiz-adv-x="571" 
d="M446.5 476q60.5 -54 60.5 -155v-294q0 -11 -8 -19t-19 -8h-76q-11 0 -19 8t-8 19v33q-23 -32 -63.5 -51t-97.5 -19q-84 0 -133 43.5t-49 112.5q0 67 47.5 106.5t132.5 54.5l163 28q0 38 -25.5 56.5t-68.5 18.5q-23 0 -37.5 -6.5t-28.5 -19.5q-15 -14 -33 -14h-93
q-10 0 -16.5 6.5t-5.5 15.5q6 31 31.5 63t72 53.5t110.5 21.5q103 0 163.5 -54zM377 232l-136 -24q-40 -7 -58.5 -20.5t-18.5 -36.5q0 -20 20.5 -30.5t51.5 -10.5q44 0 76 16t48.5 41.5t16.5 54.5v10zM132 603q-8 8 -8 19v66q0 11 8 19t19 8h259q11 0 19 -8t8 -19v-66
q0 -11 -8 -19t-19 -8h-259q-11 0 -19 8z" />
    <glyph glyph-name="aogonek" unicode="&#x105;" horiz-adv-x="571" 
d="M446.5 476q60.5 -54 60.5 -155v-294q0 -11 -8 -19t-19 -8h-15q-24 -2 -38.5 -18.5t-14.5 -45.5q0 -30 16 -47t42 -17h15q10 0 16 -6t6 -16v-48q0 -10 -6 -16t-16 -6h-19q-64 0 -107 36t-43 95q0 66 61 116v33q-23 -32 -63.5 -51t-97.5 -19q-84 0 -133 43.5t-49 112.5
q0 67 47.5 106.5t132.5 54.5l163 28q0 38 -25.5 56.5t-68.5 18.5q-23 0 -37.5 -6.5t-28.5 -19.5q-15 -14 -33 -14h-93q-10 0 -16.5 6.5t-5.5 15.5q6 31 31.5 63t72 53.5t110.5 21.5q103 0 163.5 -54zM377 232l-136 -24q-40 -7 -58.5 -20.5t-18.5 -36.5q0 -20 20.5 -30.5
t51.5 -10.5q44 0 76 16t48.5 41.5t16.5 54.5v10z" />
    <glyph glyph-name="aring" unicode="&#xe5;" horiz-adv-x="571" 
d="M446.5 476q60.5 -54 60.5 -155v-294q0 -11 -8 -19t-19 -8h-76q-11 0 -19 8t-8 19v33q-23 -32 -63.5 -51t-97.5 -19q-84 0 -133 43.5t-49 112.5q0 67 47.5 106.5t132.5 54.5l163 28q0 38 -25.5 56.5t-68.5 18.5q-23 0 -37.5 -6.5t-28.5 -19.5q-15 -14 -33 -14h-93
q-10 0 -16.5 6.5t-5.5 15.5q6 31 31.5 63t72 53.5t110.5 21.5q103 0 163.5 -54zM377 232l-136 -24q-40 -7 -58.5 -20.5t-18.5 -36.5q0 -20 20.5 -30.5t51.5 -10.5q44 0 76 16t48.5 41.5t16.5 54.5v10zM344 736q26 -24 26 -61t-26 -61t-64 -24t-64 24t-26 61t26 61t64 24
t64 -24zM301.5 653.5q8.5 8.5 8.5 21.5t-8.5 21.5t-21.5 8.5t-21.5 -8.5t-8.5 -21.5t8.5 -21.5t21.5 -8.5t21.5 8.5z" />
    <glyph glyph-name="atilde" unicode="&#xe3;" horiz-adv-x="571" 
d="M446.5 476q60.5 -54 60.5 -155v-294q0 -11 -8 -19t-19 -8h-76q-11 0 -19 8t-8 19v33q-23 -32 -63.5 -51t-97.5 -19q-84 0 -133 43.5t-49 112.5q0 67 47.5 106.5t132.5 54.5l163 28q0 38 -25.5 56.5t-68.5 18.5q-23 0 -37.5 -6.5t-28.5 -19.5q-15 -14 -33 -14h-93
q-10 0 -16.5 6.5t-5.5 15.5q6 31 31.5 63t72 53.5t110.5 21.5q103 0 163.5 -54zM377 232l-136 -24q-40 -7 -58.5 -20.5t-18.5 -36.5q0 -20 20.5 -30.5t51.5 -10.5q44 0 76 16t48.5 41.5t16.5 54.5v10zM215.5 620q-5.5 -4 -10.5 -12q-4 -7 -8 -10t-11 -3h-56q-9 0 -14 5.5
t-5 13.5q0 26 13 53t36.5 45t55.5 18q26 0 42 -5.5t32 -15.5q12 -7 19.5 -10t18.5 -3t16.5 4t10.5 12q4 7 8 10t11 3h56q9 0 14 -5.5t5 -13.5q0 -26 -13 -53t-36.5 -45t-55.5 -18q-26 0 -42 5.5t-32 15.5q-12 7 -19.5 10t-18.5 3t-16.5 -4z" />
    <glyph glyph-name="ae" unicode="&#xe6;" horiz-adv-x="908" 
d="M457 466q31 31 73.5 47.5t91.5 16.5q73 0 129 -34.5t86.5 -92.5t30.5 -127v-45q0 -11 -8 -19t-19 -8h-334q0 -43 34 -68.5t81 -25.5q56 0 82 23q11 10 16 12t17 2h93q9 0 15.5 -5.5t6.5 -13.5q0 -17 -27.5 -50.5t-79.5 -60.5t-123 -27q-61 0 -109.5 23t-80.5 66
q-42 -47 -95.5 -68t-120.5 -21q-84 0 -133 43.5t-49 112.5q0 67 47.5 106.5t132.5 54.5l163 28q0 38 -25.5 56.5t-68.5 18.5q-23 0 -37.5 -6.5t-28.5 -19.5q-15 -14 -33 -14h-93q-10 0 -16.5 6.5t-5.5 15.5q6 31 31.5 63t72 53.5t110.5 21.5q113 0 174 -64zM733 318
q-11 92 -111 92q-52 0 -81.5 -28t-33.5 -64h226zM377 232l-136 -24q-40 -7 -58.5 -20.5t-18.5 -36.5q0 -20 20.5 -30.5t51.5 -10.5q44 0 76 16t48.5 41.5t16.5 54.5v10z" />
    <glyph glyph-name="aeacute" unicode="&#x1fd;" horiz-adv-x="908" 
d="M496 741.5q7 3.5 19 3.5h95q9 0 14 -5.5t5 -14.5q0 -7 -5 -12l-123 -101q-11 -9 -19.5 -13t-22.5 -4h-55q-16 0 -16 16q0 6 5 13l85 102q11 12 18 15.5zM457 466q31 31 73.5 47.5t91.5 16.5q73 0 129 -34.5t86.5 -92.5t30.5 -127v-45q0 -11 -8 -19t-19 -8h-334
q0 -43 34 -68.5t81 -25.5q56 0 82 23q11 10 16 12t17 2h93q9 0 15.5 -5.5t6.5 -13.5q0 -17 -27.5 -50.5t-79.5 -60.5t-123 -27q-61 0 -109.5 23t-80.5 66q-42 -47 -95.5 -68t-120.5 -21q-84 0 -133 43.5t-49 112.5q0 67 47.5 106.5t132.5 54.5l163 28q0 38 -25.5 56.5
t-68.5 18.5q-23 0 -37.5 -6.5t-28.5 -19.5q-15 -14 -33 -14h-93q-10 0 -16.5 6.5t-5.5 15.5q6 31 31.5 63t72 53.5t110.5 21.5q113 0 174 -64zM733 318q-11 92 -111 92q-52 0 -81.5 -28t-33.5 -64h226zM377 232l-136 -24q-40 -7 -58.5 -20.5t-18.5 -36.5q0 -20 20.5 -30.5
t51.5 -10.5q44 0 76 16t48.5 41.5t16.5 54.5v10z" />
    <glyph glyph-name="b" unicode="b" horiz-adv-x="619" 
d="M574 260q0 -25 -1 -35q-3 -63 -31 -116.5t-77.5 -86t-114.5 -32.5q-56 0 -93 18t-58 42v-23q0 -11 -8 -19t-19 -8h-76q-11 0 -19 8t-8 19v656q0 11 8 19t19 8h76q11 0 19 -8t8 -19v-213q22 24 59 42t92 18q65 0 114.5 -32.5t77.5 -86t31 -116.5q1 -10 1 -35zM237.5 379.5
q-33.5 -30.5 -38.5 -81.5q-1 -10 -1 -38t1 -38q5 -53 38 -82.5t83 -29.5q51 0 84 30t39 92q2 20 2 28q0 76 -34 113t-91 37q-49 0 -82.5 -30.5z" />
    <glyph glyph-name="c" unicode="c" horiz-adv-x="577" 
d="M213.5 138.5q33.5 -28.5 79.5 -28.5q45 0 67 13t41 41q8 13 15.5 20t17.5 7h76q11 0 19.5 -8t7.5 -19q-2 -33 -29 -74t-81.5 -70.5t-133.5 -29.5q-71 0 -125.5 31t-86.5 83.5t-37 114.5q-1 12 -1 40q0 29 1 41q5 62 36.5 114.5t86.5 84t126 31.5q79 0 133.5 -29.5
t81.5 -70.5t29 -74q1 -11 -7.5 -19t-19.5 -8h-76q-10 0 -17.5 7t-15.5 20q-19 28 -41 41t-67 13q-46 0 -79.5 -28.5t-39.5 -86.5q-1 -10 -1 -35t1 -35q6 -58 39.5 -86.5z" />
    <glyph glyph-name="cacute" unicode="&#x107;" horiz-adv-x="577" 
d="M213.5 138.5q33.5 -28.5 79.5 -28.5q45 0 67 13t41 41q8 13 15.5 20t17.5 7h76q11 0 19.5 -8t7.5 -19q-2 -33 -29 -74t-81.5 -70.5t-133.5 -29.5q-71 0 -125.5 31t-86.5 83.5t-37 114.5q-1 12 -1 40q0 29 1 41q5 62 36.5 114.5t86.5 84t126 31.5q79 0 133.5 -29.5
t81.5 -70.5t29 -74q1 -11 -7.5 -19t-19.5 -8h-76q-10 0 -17.5 7t-15.5 20q-19 28 -41 41t-67 13q-46 0 -79.5 -28.5t-39.5 -86.5q-1 -10 -1 -35t1 -35q6 -58 39.5 -86.5zM336 741.5q7 3.5 19 3.5h95q9 0 14 -5.5t5 -14.5q0 -7 -5 -12l-123 -101q-11 -9 -19.5 -13t-22.5 -4
h-55q-16 0 -16 16q0 6 5 13l85 102q11 12 18 15.5z" />
    <glyph glyph-name="ccaron" unicode="&#x10d;" horiz-adv-x="577" 
d="M213.5 138.5q33.5 -28.5 79.5 -28.5q45 0 67 13t41 41q8 13 15.5 20t17.5 7h76q11 0 19.5 -8t7.5 -19q-2 -33 -29 -74t-81.5 -70.5t-133.5 -29.5q-71 0 -125.5 31t-86.5 83.5t-37 114.5q-1 12 -1 40q0 29 1 41q5 62 36.5 114.5t86.5 84t126 31.5q79 0 133.5 -29.5
t81.5 -70.5t29 -74q1 -11 -7.5 -19t-19.5 -8h-76q-10 0 -17.5 7t-15.5 20q-19 28 -41 41t-67 13q-46 0 -79.5 -28.5t-39.5 -86.5q-1 -10 -1 -35t1 -35q6 -58 39.5 -86.5zM242 599q-8 4 -18 15l-92 102q-5 5 -5 13q0 16 16 16h43q9 0 15 -2.5t16 -8.5l74 -47l74 47
q10 6 16 8.5t15 2.5h43q16 0 16 -16q0 -8 -5 -13l-92 -102q-10 -11 -18 -15t-19 -4h-60q-11 0 -19 4z" />
    <glyph glyph-name="ccedilla" unicode="&#xe7;" horiz-adv-x="577" 
d="M213.5 138.5q33.5 -28.5 79.5 -28.5q45 0 67 13t41 41q8 13 15.5 20t17.5 7h76q11 0 19.5 -8t7.5 -19q-2 -33 -28 -73t-79 -69.5t-130 -31.5l-21 -46q16 10 35 10q38 0 57 -23.5t19 -62.5q0 -38 -26 -63t-73 -25q-30 0 -56 13t-26 27q0 7 5 11l14 13q8 7 14 7
q4 0 17 -7.5t32 -7.5q18 0 28 8.5t10 23.5q0 30 -38 30q-9 0 -21.5 -5t-18.5 -5q-8 0 -14 6l-16 18l-5.5 7.5t-2.5 7.5q0 6 6 18l23 50q-85 16 -138 78.5t-60 145.5q-1 12 -1 40q0 29 1 41q5 62 36.5 114.5t86.5 84t126 31.5q79 0 133.5 -29.5t81.5 -70.5t29 -74
q1 -11 -7.5 -19t-19.5 -8h-76q-10 0 -17.5 7t-15.5 20q-19 28 -41 41t-67 13q-46 0 -79.5 -28.5t-39.5 -86.5q-1 -10 -1 -35t1 -35q6 -58 39.5 -86.5z" />
    <glyph glyph-name="ccircumflex" unicode="&#x109;" horiz-adv-x="577" 
d="M213.5 138.5q33.5 -28.5 79.5 -28.5q45 0 67 13t41 41q8 13 15.5 20t17.5 7h76q11 0 19.5 -8t7.5 -19q-2 -33 -29 -74t-81.5 -70.5t-133.5 -29.5q-71 0 -125.5 31t-86.5 83.5t-37 114.5q-1 12 -1 40q0 29 1 41q5 62 36.5 114.5t86.5 84t126 31.5q79 0 133.5 -29.5
t81.5 -70.5t29 -74q1 -11 -7.5 -19t-19.5 -8h-76q-10 0 -17.5 7t-15.5 20q-19 28 -41 41t-67 13q-46 0 -79.5 -28.5t-39.5 -86.5q-1 -10 -1 -35t1 -35q6 -58 39.5 -86.5zM339 741q8 -4 18 -15l92 -102q5 -5 5 -13q0 -16 -16 -16h-43q-9 0 -15 2.5t-16 8.5l-74 47l-74 -47
q-10 -6 -16 -8.5t-15 -2.5h-43q-16 0 -16 16q0 8 5 13l92 102q10 11 18 15t19 4h60q11 0 19 -4z" />
    <glyph glyph-name="cdotaccent" unicode="&#x10b;" horiz-adv-x="577" 
d="M213.5 138.5q33.5 -28.5 79.5 -28.5q45 0 67 13t41 41q8 13 15.5 20t17.5 7h76q11 0 19.5 -8t7.5 -19q-2 -33 -29 -74t-81.5 -70.5t-133.5 -29.5q-71 0 -125.5 31t-86.5 83.5t-37 114.5q-1 12 -1 40q0 29 1 41q5 62 36.5 114.5t86.5 84t126 31.5q79 0 133.5 -29.5
t81.5 -70.5t29 -74q1 -11 -7.5 -19t-19.5 -8h-76q-10 0 -17.5 7t-15.5 20q-19 28 -41 41t-67 13q-46 0 -79.5 -28.5t-39.5 -86.5q-1 -10 -1 -35t1 -35q6 -58 39.5 -86.5zM353 734q8 -8 8 -19v-93q0 -11 -8 -19t-19 -8h-88q-11 0 -19 8t-8 19v93q0 11 8 19t19 8h88
q11 0 19 -8z" />
    <glyph glyph-name="d" unicode="d" horiz-adv-x="619" 
d="M420 683q0 11 8 19t19 8h76q11 0 19 -8t8 -19v-656q0 -11 -8 -19t-19 -8h-76q-11 0 -19 8t-8 19v23q-21 -24 -58 -42t-93 -18q-65 0 -114.5 32.5t-77.5 86t-31 116.5l-1 35l1 35q3 63 31 116.5t77.5 86t114.5 32.5q55 0 92 -18t59 -42v213zM208.5 147q33.5 -37 90.5 -37
q50 0 83 29.5t38 82.5q2 20 2 38t-2 38q-5 51 -38.5 81.5t-82.5 30.5q-51 0 -84 -30t-39 -92q-1 -10 -1 -28q0 -76 33.5 -113z" />
    <glyph glyph-name="eth" unicode="&#xf0;" horiz-adv-x="592" 
d="M195 658q-17 13 -17 22t5.5 14.5t14.5 5.5h106q20 0 36 -13l43 -39l92 36q8 3 11 3q9 0 15 -6t6 -15v-48q0 -13 -5 -20.5t-17 -12.5l-33 -13q46 -62 69 -140.5t23 -191.5q0 -83 -33 -139t-89.5 -83.5t-128.5 -27.5q-71 0 -128 27t-90 81t-33 132t33 132t90 81t128 27
q39 0 77 -9q-16 33 -39 64l-92 -36q-7 -3 -11 -3q-9 0 -15 6t-6 15v48q0 14 5 21.5t17 11.5l33 13q-35 32 -67 57zM382 144q32 34 32 86t-32 86t-89 34t-89 -34t-32 -86t32 -86t89 -34t89 34z" />
    <glyph glyph-name="dcaron" unicode="&#x10f;" horiz-adv-x="700" 
d="M420 683q0 11 8 19t19 8h76q11 0 19 -8t8 -19v-656q0 -11 -8 -19t-19 -8h-76q-11 0 -19 8t-8 19v23q-21 -24 -58 -42t-93 -18q-65 0 -114.5 32.5t-77.5 86t-31 116.5l-1 35l1 35q3 63 31 116.5t77.5 86t114.5 32.5q55 0 92 -18t59 -42v213zM208.5 147q33.5 -37 90.5 -37
q50 0 83 29.5t38 82.5q2 20 2 38t-2 38q-5 51 -38.5 81.5t-82.5 30.5q-51 0 -84 -30t-39 -92q-1 -10 -1 -28q0 -76 33.5 -113zM637.5 698.5q10.5 11.5 29.5 11.5h81q9 0 15.5 -6.5t6.5 -15.5q0 -4 -1 -7l-55 -139q-12 -32 -43 -32h-46q-9 0 -15.5 6.5t-6.5 15.5v2l21 137
q3 16 13.5 27.5z" />
    <glyph glyph-name="dcroat" unicode="&#x111;" horiz-adv-x="619" 
d="M420 554h-53q-11 0 -19 8t-8 19v36q0 11 8 19t19 8h53v39q0 11 8 19t19 8h76q11 0 19 -8t8 -19v-39h53q11 0 19 -8t8 -19v-36q0 -11 -8 -19t-19 -8h-53v-527q0 -11 -8 -19t-19 -8h-76q-11 0 -19 8t-8 19v23q-21 -24 -58 -42t-93 -18q-65 0 -114.5 32.5t-77.5 86
t-31 116.5l-1 35l1 35q3 63 31 116.5t77.5 86t114.5 32.5q55 0 92 -18t59 -42v84zM208.5 147q33.5 -37 90.5 -37q50 0 83 29.5t38 82.5q2 20 2 38t-2 38q-5 51 -38.5 81.5t-82.5 30.5q-51 0 -84 -30t-39 -92q-1 -10 -1 -28q0 -76 33.5 -113z" />
    <glyph glyph-name="e" unicode="e" horiz-adv-x="574" 
d="M417 495.5q56 -34.5 86.5 -92.5t30.5 -127v-45q0 -11 -8 -19t-19 -8h-334q0 -43 34 -68.5t81 -25.5q55 0 85 23q11 8 18 11t19 3h80q11 0 19 -7.5t8 -17.5q0 -21 -27.5 -53t-79.5 -55.5t-122 -23.5q-74 0 -129.5 34t-85.5 95t-30 141q0 75 30 136.5t86 97.5t129 36
t129 -34.5zM399 318q-11 92 -111 92q-52 0 -81.5 -28t-33.5 -64h226z" />
    <glyph glyph-name="eacute" unicode="&#xe9;" horiz-adv-x="574" 
d="M417 495.5q56 -34.5 86.5 -92.5t30.5 -127v-45q0 -11 -8 -19t-19 -8h-334q0 -43 34 -68.5t81 -25.5q55 0 85 23q11 8 18 11t19 3h80q11 0 19 -7.5t8 -17.5q0 -21 -27.5 -53t-79.5 -55.5t-122 -23.5q-74 0 -129.5 34t-85.5 95t-30 141q0 75 30 136.5t86 97.5t129 36
t129 -34.5zM399 318q-11 92 -111 92q-52 0 -81.5 -28t-33.5 -64h226zM340 741.5q7 3.5 19 3.5h95q9 0 14 -5.5t5 -14.5q0 -7 -5 -12l-123 -101q-11 -9 -19.5 -13t-22.5 -4h-55q-16 0 -16 16q0 6 5 13l85 102q11 12 18 15.5z" />
    <glyph glyph-name="ebreve" unicode="&#x115;" horiz-adv-x="574" 
d="M417 495.5q56 -34.5 86.5 -92.5t30.5 -127v-45q0 -11 -8 -19t-19 -8h-334q0 -43 34 -68.5t81 -25.5q55 0 85 23q11 8 18 11t19 3h80q11 0 19 -7.5t8 -17.5q0 -21 -27.5 -53t-79.5 -55.5t-122 -23.5q-74 0 -129.5 34t-85.5 95t-30 141q0 75 30 136.5t86 97.5t129 36
t129 -34.5zM399 318q-11 92 -111 92q-52 0 -81.5 -28t-33.5 -64h226zM149 739.5q5 5.5 14 5.5h57q9 0 14 -5.5t5 -13.5q0 -50 49 -50t49 50q0 8 5 13.5t14 5.5h57q9 0 14 -5.5t5 -13.5q0 -56 -33.5 -96t-110.5 -40t-110.5 40t-33.5 96q0 8 5 13.5z" />
    <glyph glyph-name="ecaron" unicode="&#x11b;" horiz-adv-x="574" 
d="M417 495.5q56 -34.5 86.5 -92.5t30.5 -127v-45q0 -11 -8 -19t-19 -8h-334q0 -43 34 -68.5t81 -25.5q55 0 85 23q11 8 18 11t19 3h80q11 0 19 -7.5t8 -17.5q0 -21 -27.5 -53t-79.5 -55.5t-122 -23.5q-74 0 -129.5 34t-85.5 95t-30 141q0 75 30 136.5t86 97.5t129 36
t129 -34.5zM399 318q-11 92 -111 92q-52 0 -81.5 -28t-33.5 -64h226zM239 599q-8 4 -18 15l-92 102q-5 5 -5 13q0 16 16 16h43q9 0 15 -2.5t16 -8.5l74 -47l74 47q10 6 16 8.5t15 2.5h43q16 0 16 -16q0 -8 -5 -13l-92 -102q-10 -11 -18 -15t-19 -4h-60q-11 0 -19 4z" />
    <glyph glyph-name="ecircumflex" unicode="&#xea;" horiz-adv-x="574" 
d="M417 495.5q56 -34.5 86.5 -92.5t30.5 -127v-45q0 -11 -8 -19t-19 -8h-334q0 -43 34 -68.5t81 -25.5q55 0 85 23q11 8 18 11t19 3h80q11 0 19 -7.5t8 -17.5q0 -21 -27.5 -53t-79.5 -55.5t-122 -23.5q-74 0 -129.5 34t-85.5 95t-30 141q0 75 30 136.5t86 97.5t129 36
t129 -34.5zM399 318q-11 92 -111 92q-52 0 -81.5 -28t-33.5 -64h226zM337 741q8 -4 18 -15l92 -102q5 -5 5 -13q0 -16 -16 -16h-43q-9 0 -15 2.5t-16 8.5l-74 47l-74 -47q-10 -6 -16 -8.5t-15 -2.5h-43q-16 0 -16 16q0 8 5 13l92 102q10 11 18 15t19 4h60q11 0 19 -4z" />
    <glyph glyph-name="edieresis" unicode="&#xeb;" horiz-adv-x="574" 
d="M417 495.5q56 -34.5 86.5 -92.5t30.5 -127v-45q0 -11 -8 -19t-19 -8h-334q0 -43 34 -68.5t81 -25.5q55 0 85 23q11 8 18 11t19 3h80q11 0 19 -7.5t8 -17.5q0 -21 -27.5 -53t-79.5 -55.5t-122 -23.5q-74 0 -129.5 34t-85.5 95t-30 141q0 75 30 136.5t86 97.5t129 36
t129 -34.5zM399 318q-11 92 -111 92q-52 0 -81.5 -28t-33.5 -64h226zM245 729q8 -8 8 -19v-88q0 -11 -8 -19t-19 -8h-83q-11 0 -19 8t-8 19v88q0 11 8 19t19 8h83q11 0 19 -8zM452 729q8 -8 8 -19v-88q0 -11 -8 -19t-19 -8h-83q-11 0 -19 8t-8 19v88q0 11 8 19t19 8h83
q11 0 19 -8z" />
    <glyph glyph-name="edotaccent" unicode="&#x117;" horiz-adv-x="574" 
d="M417 495.5q56 -34.5 86.5 -92.5t30.5 -127v-45q0 -11 -8 -19t-19 -8h-334q0 -43 34 -68.5t81 -25.5q55 0 85 23q11 8 18 11t19 3h80q11 0 19 -7.5t8 -17.5q0 -21 -27.5 -53t-79.5 -55.5t-122 -23.5q-74 0 -129.5 34t-85.5 95t-30 141q0 75 30 136.5t86 97.5t129 36
t129 -34.5zM399 318q-11 92 -111 92q-52 0 -81.5 -28t-33.5 -64h226zM351 734q8 -8 8 -19v-93q0 -11 -8 -19t-19 -8h-88q-11 0 -19 8t-8 19v93q0 11 8 19t19 8h88q11 0 19 -8z" />
    <glyph glyph-name="egrave" unicode="&#xe8;" horiz-adv-x="574" 
d="M417 495.5q56 -34.5 86.5 -92.5t30.5 -127v-45q0 -11 -8 -19t-19 -8h-334q0 -43 34 -68.5t81 -25.5q55 0 85 23q11 8 18 11t19 3h80q11 0 19 -7.5t8 -17.5q0 -21 -27.5 -53t-79.5 -55.5t-122 -23.5q-74 0 -129.5 34t-85.5 95t-30 141q0 75 30 136.5t86 97.5t129 36
t129 -34.5zM399 318q-11 92 -111 92q-52 0 -81.5 -28t-33.5 -64h226zM345 611q0 -16 -16 -16h-55q-14 0 -22.5 4t-19.5 13l-123 101q-5 5 -5 12q0 9 5 14.5t14 5.5h95q12 0 19 -3.5t18 -15.5l85 -102q5 -7 5 -13z" />
    <glyph glyph-name="emacron" unicode="&#x113;" horiz-adv-x="574" 
d="M417 495.5q56 -34.5 86.5 -92.5t30.5 -127v-45q0 -11 -8 -19t-19 -8h-334q0 -43 34 -68.5t81 -25.5q55 0 85 23q11 8 18 11t19 3h80q11 0 19 -7.5t8 -17.5q0 -21 -27.5 -53t-79.5 -55.5t-122 -23.5q-74 0 -129.5 34t-85.5 95t-30 141q0 75 30 136.5t86 97.5t129 36
t129 -34.5zM399 318q-11 92 -111 92q-52 0 -81.5 -28t-33.5 -64h226zM140 603q-8 8 -8 19v66q0 11 8 19t19 8h259q11 0 19 -8t8 -19v-66q0 -11 -8 -19t-19 -8h-259q-11 0 -19 8z" />
    <glyph glyph-name="eogonek" unicode="&#x119;" horiz-adv-x="574" 
d="M417 495.5q56 -34.5 86.5 -92.5t30.5 -127v-45q0 -11 -8 -19t-19 -8h-334q0 -43 34 -68.5t81 -25.5q55 0 85 23q11 8 18 11t19 3h80q11 0 19 -7.5t8 -17.5q0 -18 -22.5 -45.5t-65.5 -51t-101 -32.5q-25 -4 -38.5 -17t-13.5 -40q0 -30 16 -47t42 -17h15q10 0 16 -6t6 -16
v-48q0 -10 -6 -16t-16 -6h-19q-69 0 -111 42.5t-42 113.5q0 38 14 71q-70 28 -109 95t-39 158q0 75 30 136.5t86 97.5t129 36t129 -34.5zM399 318q-11 92 -111 92q-52 0 -81.5 -28t-33.5 -64h226z" />
    <glyph glyph-name="f" unicode="f" horiz-adv-x="427" 
d="M384 520q11 0 19 -8t8 -19v-66q0 -11 -8 -19t-19 -8h-139v-373q0 -11 -8 -19t-19 -8h-76q-11 0 -19 8t-8 19v373h-66q-11 0 -19 8t-8 19v66q0 11 8 19t19 8h66v45q0 93 51.5 134t146.5 41h81q11 0 19 -8t8 -19v-66q0 -11 -8 -19t-19 -8h-71q-40 0 -59 -14.5t-19 -50.5
v-35h139z" />
    <glyph glyph-name="g" unicode="g" horiz-adv-x="619" 
d="M420 50q-21 -24 -58 -42t-93 -18q-65 0 -114.5 32.5t-77.5 86t-31 116.5l-1 35l1 35q3 63 31 116.5t77.5 86t114.5 32.5q55 0 92 -18t59 -42v23q0 11 8 19t19 8h76q11 0 19 -8t8 -19v-469q0 -119 -67 -181.5t-187 -62.5q-66 0 -120 23t-86.5 59.5t-35.5 76.5
q-1 11 7.5 19t19.5 8h68q12 0 21.5 -7.5t19.5 -19.5q16 -19 39 -29t67 -10q48 0 86 29.5t38 83.5v37zM208.5 147q33.5 -37 90.5 -37q50 0 83 29.5t38 82.5q2 20 2 38t-2 38q-5 51 -38.5 81.5t-82.5 30.5q-51 0 -84 -30t-39 -92q-1 -10 -1 -28q0 -76 33.5 -113z" />
    <glyph glyph-name="gbreve" unicode="&#x11f;" horiz-adv-x="619" 
d="M420 50q-21 -24 -58 -42t-93 -18q-65 0 -114.5 32.5t-77.5 86t-31 116.5l-1 35l1 35q3 63 31 116.5t77.5 86t114.5 32.5q55 0 92 -18t59 -42v23q0 11 8 19t19 8h76q11 0 19 -8t8 -19v-469q0 -119 -67 -181.5t-187 -62.5q-66 0 -120 23t-86.5 59.5t-35.5 76.5
q-1 11 7.5 19t19.5 8h68q12 0 21.5 -7.5t19.5 -19.5q16 -19 39 -29t67 -10q48 0 86 29.5t38 83.5v37zM208.5 147q33.5 -37 90.5 -37q50 0 83 29.5t38 82.5q2 20 2 38t-2 38q-5 51 -38.5 81.5t-82.5 30.5q-51 0 -84 -30t-39 -92q-1 -10 -1 -28q0 -76 33.5 -113zM158 739.5
q5 5.5 14 5.5h57q9 0 14 -5.5t5 -13.5q0 -50 49 -50t49 50q0 8 5 13.5t14 5.5h57q9 0 14 -5.5t5 -13.5q0 -56 -33.5 -96t-110.5 -40t-110.5 40t-33.5 96q0 8 5 13.5z" />
    <glyph glyph-name="gcircumflex" unicode="&#x11d;" horiz-adv-x="619" 
d="M420 50q-21 -24 -58 -42t-93 -18q-65 0 -114.5 32.5t-77.5 86t-31 116.5l-1 35l1 35q3 63 31 116.5t77.5 86t114.5 32.5q55 0 92 -18t59 -42v23q0 11 8 19t19 8h76q11 0 19 -8t8 -19v-469q0 -119 -67 -181.5t-187 -62.5q-66 0 -120 23t-86.5 59.5t-35.5 76.5
q-1 11 7.5 19t19.5 8h68q12 0 21.5 -7.5t19.5 -19.5q16 -19 39 -29t67 -10q48 0 86 29.5t38 83.5v37zM208.5 147q33.5 -37 90.5 -37q50 0 83 29.5t38 82.5q2 20 2 38t-2 38q-5 51 -38.5 81.5t-82.5 30.5q-51 0 -84 -30t-39 -92q-1 -10 -1 -28q0 -76 33.5 -113zM346 741
q8 -4 18 -15l92 -102q5 -5 5 -13q0 -16 -16 -16h-43q-9 0 -15 2.5t-16 8.5l-74 47l-74 -47q-10 -6 -16 -8.5t-15 -2.5h-43q-16 0 -16 16q0 8 5 13l92 102q10 11 18 15t19 4h60q11 0 19 -4z" />
    <glyph glyph-name="gcommaaccent" unicode="&#x123;" horiz-adv-x="619" 
d="M356.5 607.5q-10.5 -11.5 -29.5 -11.5h-81q-9 0 -15.5 6.5t-6.5 15.5q0 4 1 7l55 139q12 32 43 32h46q9 0 15.5 -6.5t6.5 -15.5v-2l-21 -137q-3 -16 -13.5 -27.5zM420 50q-21 -24 -58 -42t-93 -18q-65 0 -114.5 32.5t-77.5 86t-31 116.5l-1 35l1 35q3 63 31 116.5
t77.5 86t114.5 32.5q55 0 92 -18t59 -42v23q0 11 8 19t19 8h76q11 0 19 -8t8 -19v-469q0 -119 -67 -181.5t-187 -62.5q-66 0 -120 23t-86.5 59.5t-35.5 76.5q-1 11 7.5 19t19.5 8h68q12 0 21.5 -7.5t19.5 -19.5q16 -19 39 -29t67 -10q48 0 86 29.5t38 83.5v37zM208.5 147
q33.5 -37 90.5 -37q50 0 83 29.5t38 82.5q2 20 2 38t-2 38q-5 51 -38.5 81.5t-82.5 30.5q-51 0 -84 -30t-39 -92q-1 -10 -1 -28q0 -76 33.5 -113z" />
    <glyph glyph-name="gdotaccent" unicode="&#x121;" horiz-adv-x="619" 
d="M420 50q-21 -24 -58 -42t-93 -18q-65 0 -114.5 32.5t-77.5 86t-31 116.5l-1 35l1 35q3 63 31 116.5t77.5 86t114.5 32.5q55 0 92 -18t59 -42v23q0 11 8 19t19 8h76q11 0 19 -8t8 -19v-469q0 -119 -67 -181.5t-187 -62.5q-66 0 -120 23t-86.5 59.5t-35.5 76.5
q-1 11 7.5 19t19.5 8h68q12 0 21.5 -7.5t19.5 -19.5q16 -19 39 -29t67 -10q48 0 86 29.5t38 83.5v37zM208.5 147q33.5 -37 90.5 -37q50 0 83 29.5t38 82.5q2 20 2 38t-2 38q-5 51 -38.5 81.5t-82.5 30.5q-51 0 -84 -30t-39 -92q-1 -10 -1 -28q0 -76 33.5 -113zM360 734
q8 -8 8 -19v-93q0 -11 -8 -19t-19 -8h-88q-11 0 -19 8t-8 19v93q0 11 8 19t19 8h88q11 0 19 -8z" />
    <glyph glyph-name="h" unicode="h" horiz-adv-x="621" 
d="M549 8q-8 -8 -19 -8h-76q-11 0 -19 8t-8 19v254q0 62 -29 97t-85 35q-52 0 -83 -36t-31 -96v-254q0 -11 -8 -19t-19 -8h-76q-11 0 -19 8t-8 19v656q0 11 8 19t19 8h76q11 0 19 -8t8 -19v-213q60 60 144 60q113 0 163.5 -65t50.5 -169v-269q0 -11 -8 -19z" />
    <glyph glyph-name="hbar" unicode="&#x127;" horiz-adv-x="621" 
d="M549 8q-8 -8 -19 -8h-76q-11 0 -19 8t-8 19v254q0 62 -29 97t-85 35q-52 0 -83 -36t-31 -96v-254q0 -11 -8 -19t-19 -8h-76q-11 0 -19 8t-8 19v527h-53q-11 0 -19 8t-8 19v36q0 11 8 19t19 8h53v39q0 11 8 19t19 8h76q11 0 19 -8t8 -19v-39h53q11 0 19 -8t8 -19v-36
q0 -11 -8 -19t-19 -8h-53v-84q60 60 144 60q113 0 163.5 -65t50.5 -169v-269q0 -11 -8 -19z" />
    <glyph glyph-name="hcircumflex" unicode="&#x125;" horiz-adv-x="621" 
d="M549 8q-8 -8 -19 -8h-76q-11 0 -19 8t-8 19v254q0 62 -29 97t-85 35q-52 0 -83 -36t-31 -96v-254q0 -11 -8 -19t-19 -8h-76q-11 0 -19 8t-8 19v656q0 11 8 19t19 8h76q11 0 19 -8t8 -19v-213q60 60 144 60q113 0 163.5 -65t50.5 -169v-269q0 -11 -8 -19zM362 896
q8 -4 18 -15l92 -102q5 -5 5 -13q0 -16 -16 -16h-43q-9 0 -15 2.5t-16 8.5l-74 47l-74 -47q-10 -6 -16 -8.5t-15 -2.5h-43q-16 0 -16 16q0 8 5 13l92 102q10 11 18 15t19 4h60q11 0 19 -4z" />
    <glyph glyph-name="i" unicode="i" horiz-adv-x="268" 
d="M196 702q8 -8 8 -19v-78q0 -11 -8 -19t-19 -8h-86q-11 0 -19 8t-8 19v78q0 11 8 19t19 8h86q11 0 19 -8zM191 8q-8 -8 -19 -8h-76q-11 0 -19 8t-8 19v466q0 11 8 19t19 8h76q11 0 19 -8t8 -19v-466q0 -11 -8 -19z" />
    <glyph glyph-name="dotlessi" unicode="&#x131;" horiz-adv-x="268" 
d="M191 8q-8 -8 -19 -8h-76q-11 0 -19 8t-8 19v466q0 11 8 19t19 8h76q11 0 19 -8t8 -19v-466q0 -11 -8 -19z" />
    <glyph glyph-name="iacute" unicode="&#xed;" horiz-adv-x="268" 
d="M191 8q-8 -8 -19 -8h-76q-11 0 -19 8t-8 19v466q0 11 8 19t19 8h76q11 0 19 -8t8 -19v-466q0 -11 -8 -19zM185 741.5q7 3.5 19 3.5h95q9 0 14 -5.5t5 -14.5q0 -7 -5 -12l-123 -101q-11 -9 -19.5 -13t-22.5 -4h-55q-16 0 -16 16q0 6 5 13l85 102q11 12 18 15.5z" />
    <glyph glyph-name="ibreve" unicode="&#x12d;" horiz-adv-x="268" 
d="M191 8q-8 -8 -19 -8h-76q-11 0 -19 8t-8 19v466q0 11 8 19t19 8h76q11 0 19 -8t8 -19v-466q0 -11 -8 -19zM-5 739.5q5 5.5 14 5.5h57q9 0 14 -5.5t5 -13.5q0 -50 49 -50t49 50q0 8 5 13.5t14 5.5h57q9 0 14 -5.5t5 -13.5q0 -56 -33.5 -96t-110.5 -40t-110.5 40t-33.5 96
q0 8 5 13.5z" />
    <glyph glyph-name="icircumflex" unicode="&#xee;" horiz-adv-x="268" 
d="M191 8q-8 -8 -19 -8h-76q-11 0 -19 8t-8 19v466q0 11 8 19t19 8h76q11 0 19 -8t8 -19v-466q0 -11 -8 -19zM183 741q8 -4 18 -15l92 -102q5 -5 5 -13q0 -16 -16 -16h-43q-9 0 -15 2.5t-16 8.5l-74 47l-74 -47q-10 -6 -16 -8.5t-15 -2.5h-43q-16 0 -16 16q0 8 5 13l92 102
q10 11 18 15t19 4h60q11 0 19 -4z" />
    <glyph glyph-name="idieresis" unicode="&#xef;" horiz-adv-x="268" 
d="M191 8q-8 -8 -19 -8h-76q-11 0 -19 8t-8 19v466q0 11 8 19t19 8h76q11 0 19 -8t8 -19v-466q0 -11 -8 -19zM91 729q8 -8 8 -19v-88q0 -11 -8 -19t-19 -8h-83q-11 0 -19 8t-8 19v88q0 11 8 19t19 8h83q11 0 19 -8zM298 729q8 -8 8 -19v-88q0 -11 -8 -19t-19 -8h-83
q-11 0 -19 8t-8 19v88q0 11 8 19t19 8h83q11 0 19 -8z" />
    <glyph glyph-name="igrave" unicode="&#xec;" horiz-adv-x="268" 
d="M191 8q-8 -8 -19 -8h-76q-11 0 -19 8t-8 19v466q0 11 8 19t19 8h76q11 0 19 -8t8 -19v-466q0 -11 -8 -19zM192 611q0 -16 -16 -16h-55q-14 0 -22.5 4t-19.5 13l-123 101q-5 5 -5 12q0 9 5 14.5t14 5.5h95q12 0 19 -3.5t18 -15.5l85 -102q5 -7 5 -13z" />
    <glyph glyph-name="ij" unicode="&#x133;" horiz-adv-x="546" 
d="M196 702q8 -8 8 -19v-78q0 -11 -8 -19t-19 -8h-86q-11 0 -19 8t-8 19v78q0 11 8 19t19 8h86q11 0 19 -8zM191 8q-8 -8 -19 -8h-76q-11 0 -19 8t-8 19v466q0 11 8 19t19 8h76q11 0 19 -8t8 -19v-466q0 -11 -8 -19zM474 702q8 -8 8 -19v-78q0 -11 -8 -19t-19 -8h-86
q-11 0 -19 8t-8 19v78q0 11 8 19t19 8h86q11 0 19 -8zM355 512q8 8 19 8h76q11 0 19 -8t8 -19v-503q0 -89 -50.5 -134.5t-144.5 -45.5h-25q-11 0 -19 8t-8 19v66q0 11 8 19t19 8h15q43 0 59 16t16 49v498q0 11 8 19z" />
    <glyph glyph-name="imacron" unicode="&#x12b;" horiz-adv-x="268" 
d="M191 8q-8 -8 -19 -8h-76q-11 0 -19 8t-8 19v466q0 11 8 19t19 8h76q11 0 19 -8t8 -19v-466q0 -11 -8 -19zM-14 603q-8 8 -8 19v66q0 11 8 19t19 8h259q11 0 19 -8t8 -19v-66q0 -11 -8 -19t-19 -8h-259q-11 0 -19 8z" />
    <glyph glyph-name="iogonek" unicode="&#x12f;" horiz-adv-x="282" 
d="M210 702q8 -8 8 -19v-78q0 -11 -8 -19t-19 -8h-86q-11 0 -19 8t-8 19v78q0 11 8 19t19 8h86q11 0 19 -8zM205 8q-8 -8 -19 -8h-15q-24 -2 -38.5 -18.5t-14.5 -45.5q0 -30 16 -47t42 -17h15q10 0 16 -6t6 -16v-48q0 -10 -6 -16t-16 -6h-19q-69 0 -111 42.5t-42 113.5
q0 43 16.5 76.5t47.5 54.5v426q0 11 8 19t19 8h76q11 0 19 -8t8 -19v-466q0 -11 -8 -19z" />
    <glyph glyph-name="itilde" unicode="&#x129;" horiz-adv-x="268" 
d="M191 8q-8 -8 -19 -8h-76q-11 0 -19 8t-8 19v466q0 11 8 19t19 8h76q11 0 19 -8t8 -19v-466q0 -11 -8 -19zM69.5 620q-5.5 -4 -10.5 -12q-4 -7 -8 -10t-11 -3h-56q-9 0 -14 5.5t-5 13.5q0 26 13 53t36.5 45t55.5 18q26 0 42 -5.5t32 -15.5q12 -7 19.5 -10t18.5 -3t16.5 4
t10.5 12q4 7 8 10t11 3h56q9 0 14 -5.5t5 -13.5q0 -26 -13 -53t-36.5 -45t-55.5 -18q-26 0 -42 5.5t-32 15.5q-12 7 -19.5 10t-18.5 3t-16.5 -4z" />
    <glyph glyph-name="j" unicode="j" horiz-adv-x="278" 
d="M206 702q8 -8 8 -19v-78q0 -11 -8 -19t-19 -8h-86q-11 0 -19 8t-8 19v78q0 11 8 19t19 8h86q11 0 19 -8zM87 512q8 8 19 8h76q11 0 19 -8t8 -19v-503q0 -89 -50.5 -134.5t-144.5 -45.5h-25q-11 0 -19 8t-8 19v66q0 11 8 19t19 8h15q43 0 59 16t16 49v498q0 11 8 19z" />
    <glyph glyph-name="uni0237" unicode="&#x237;" horiz-adv-x="327" 
d="M207.5 -144.5q-50.5 -45.5 -144.5 -45.5h-25q-11 0 -19 8t-8 19v66q0 11 8 19t19 8h15q43 0 59 16t16 49v408h-80q-11 0 -19 8t-8 19v63q0 11 8 19t19 8h183q11 0 19 -8t8 -19v-503q0 -89 -50.5 -134.5z" />
    <glyph glyph-name="jcircumflex" unicode="&#x135;" horiz-adv-x="327" 
d="M207.5 -144.5q-50.5 -45.5 -144.5 -45.5h-25q-11 0 -19 8t-8 19v66q0 11 8 19t19 8h15q43 0 59 16t16 49v408h-80q-11 0 -19 8t-8 19v63q0 11 8 19t19 8h183q11 0 19 -8t8 -19v-503q0 -89 -50.5 -134.5zM195 741q8 -4 18 -15l92 -102q5 -5 5 -13q0 -16 -16 -16h-43
q-9 0 -15 2.5t-16 8.5l-74 47l-74 -47q-10 -6 -16 -8.5t-15 -2.5h-43q-16 0 -16 16q0 8 5 13l92 102q10 11 18 15t19 4h60q11 0 19 -4z" />
    <glyph glyph-name="k" unicode="k" horiz-adv-x="562" 
d="M199 27q0 -11 -8 -19t-19 -8h-76q-11 0 -19 8t-8 19v656q0 11 8 19t19 8h76q11 0 19 -8t8 -19v-315l167 135q11 8 19 12.5t20 4.5h102q10 0 17 -7t7 -17q0 -11 -11 -20l-233 -188l255 -245q10 -10 10 -19q0 -10 -7 -17t-17 -7h-97q-21 0 -41 17l-191 182v-172z" />
    <glyph glyph-name="kcommaaccent" unicode="&#x137;" horiz-adv-x="562" 
d="M199 27q0 -11 -8 -19t-19 -8h-76q-11 0 -19 8t-8 19v656q0 11 8 19t19 8h76q11 0 19 -8t8 -19v-315l167 135q11 8 19 12.5t20 4.5h102q10 0 17 -7t7 -17q0 -11 -11 -20l-233 -188l255 -245q10 -10 10 -19q0 -10 -7 -17t-17 -7h-97q-21 0 -41 17l-191 182v-172z
M216.5 -61.5q10.5 11.5 29.5 11.5h81q9 0 15.5 -6.5t6.5 -15.5q0 -4 -1 -7l-55 -139q-12 -32 -43 -32h-46q-9 0 -15.5 6.5t-6.5 15.5v2l21 137q3 16 13.5 27.5z" />
    <glyph glyph-name="kgreenlandic" unicode="&#x138;" horiz-adv-x="572" 
d="M199 27q0 -11 -8 -19t-19 -8h-76q-11 0 -19 8t-8 19v466q0 11 8 19t19 8h76q11 0 19 -8t8 -19v-158l184 168q11 8 19 12.5t20 4.5h95q10 0 17 -7t7 -17q0 -11 -11 -20l-233 -211l255 -222q10 -10 10 -19q0 -10 -7 -17t-17 -7h-106q-21 0 -41 17l-192 167v-157z" />
    <glyph glyph-name="l" unicode="l" horiz-adv-x="268" 
d="M191 8q-8 -8 -19 -8h-76q-11 0 -19 8t-8 19v656q0 11 8 19t19 8h76q11 0 19 -8t8 -19v-656q0 -11 -8 -19z" />
    <glyph glyph-name="lacute" unicode="&#x13a;" horiz-adv-x="268" 
d="M191 8q-8 -8 -19 -8h-76q-11 0 -19 8t-8 19v656q0 11 8 19t19 8h76q11 0 19 -8t8 -19v-656q0 -11 -8 -19zM185 896.5q7 3.5 19 3.5h95q9 0 14 -5.5t5 -14.5q0 -7 -5 -12l-123 -101q-11 -9 -19.5 -13t-22.5 -4h-55q-16 0 -16 16q0 6 5 13l85 102q11 12 18 15.5z" />
    <glyph glyph-name="lcaron" unicode="&#x13e;" horiz-adv-x="348" 
d="M191 8q-8 -8 -19 -8h-76q-11 0 -19 8t-8 19v656q0 11 8 19t19 8h76q11 0 19 -8t8 -19v-656q0 -11 -8 -19zM286.5 699.5q10.5 11.5 29.5 11.5h81q9 0 15.5 -6.5t6.5 -15.5q0 -4 -1 -7l-55 -139q-12 -32 -43 -32h-46q-9 0 -15.5 6.5t-6.5 15.5v2l21 137q3 16 13.5 27.5z
" />
    <glyph glyph-name="lcommaaccent" unicode="&#x13c;" horiz-adv-x="268" 
d="M191 8q-8 -8 -19 -8h-76q-11 0 -19 8t-8 19v656q0 11 8 19t19 8h76q11 0 19 -8t8 -19v-656q0 -11 -8 -19zM68.5 -61.5q10.5 11.5 29.5 11.5h81q9 0 15.5 -6.5t6.5 -15.5q0 -4 -1 -7l-55 -139q-12 -32 -43 -32h-46q-9 0 -15.5 6.5t-6.5 15.5v2l21 137q3 16 13.5 27.5z" />
    <glyph glyph-name="ldot" unicode="&#x140;" horiz-adv-x="377" 
d="M191 8q-8 -8 -19 -8h-76q-11 0 -19 8t-8 19v656q0 11 8 19t19 8h76q11 0 19 -8t8 -19v-656q0 -11 -8 -19zM388 428q8 -8 8 -19v-98q0 -11 -8 -19t-19 -8h-93q-11 0 -19 8t-8 19v98q0 11 8 19t19 8h93q11 0 19 -8z" />
    <glyph glyph-name="lslash" unicode="&#x142;" horiz-adv-x="294" 
d="M240 443q8 3 11 3q9 0 15 -6t6 -15v-48q0 -13 -5 -20.5t-17 -12.5l-38 -15v-302q0 -11 -8 -19t-19 -8h-76q-11 0 -19 8t-8 19v252l-28 -11q-8 -3 -11 -3q-9 0 -15 6t-6 15v48q0 14 5 21.5t17 11.5l38 14v302q0 11 8 19t19 8h76q11 0 19 -8t8 -19v-251z" />
    <glyph glyph-name="m" unicode="m" horiz-adv-x="919" 
d="M257 514.5q34 15.5 71 15.5q116 0 166 -85q26 39 71.5 62t90.5 23q106 0 152.5 -64.5t46.5 -169.5v-269q0 -11 -8 -19t-19 -8h-76q-11 0 -19 8t-8 19v264q0 65 -25 93.5t-74 28.5q-43 0 -70.5 -28t-28.5 -89v-269q0 -11 -8 -19t-19 -8h-76q-11 0 -19 8t-8 19v264
q0 65 -25 93.5t-74 28.5q-44 0 -71.5 -29.5t-27.5 -92.5v-264q0 -11 -8 -19t-19 -8h-76q-11 0 -19 8t-8 19v466q0 11 8 19t19 8h76q11 0 19 -8t8 -19v-23q24 29 58 44.5z" />
    <glyph glyph-name="n" unicode="n" horiz-adv-x="621" 
d="M549 8q-8 -8 -19 -8h-76q-11 0 -19 8t-8 19v254q0 62 -29 97t-85 35q-52 0 -83 -36t-31 -96v-254q0 -11 -8 -19t-19 -8h-76q-11 0 -19 8t-8 19v466q0 11 8 19t19 8h76q11 0 19 -8t8 -19v-23q60 60 144 60q113 0 163.5 -65t50.5 -169v-269q0 -11 -8 -19z" />
    <glyph glyph-name="nacute" unicode="&#x144;" horiz-adv-x="621" 
d="M549 8q-8 -8 -19 -8h-76q-11 0 -19 8t-8 19v254q0 62 -29 97t-85 35q-52 0 -83 -36t-31 -96v-254q0 -11 -8 -19t-19 -8h-76q-11 0 -19 8t-8 19v466q0 11 8 19t19 8h76q11 0 19 -8t8 -19v-23q60 60 144 60q113 0 163.5 -65t50.5 -169v-269q0 -11 -8 -19zM363 741.5
q7 3.5 19 3.5h95q9 0 14 -5.5t5 -14.5q0 -7 -5 -12l-123 -101q-11 -9 -19.5 -13t-22.5 -4h-55q-16 0 -16 16q0 6 5 13l85 102q11 12 18 15.5z" />
    <glyph glyph-name="napostrophe" unicode="&#x149;" horiz-adv-x="621" 
d="M549 8q-8 -8 -19 -8h-76q-11 0 -19 8t-8 19v254q0 62 -29 97t-85 35q-52 0 -83 -36t-31 -96v-254q0 -11 -8 -19t-19 -8h-76q-11 0 -19 8t-8 19v466q0 11 8 19t19 8h76q11 0 19 -8t8 -19v-23q60 60 144 60q113 0 163.5 -65t50.5 -169v-269q0 -11 -8 -19zM120.5 783.5
q10.5 11.5 29.5 11.5h81q9 0 15.5 -6.5t6.5 -15.5q0 -4 -1 -7l-55 -139q-12 -32 -43 -32h-46q-9 0 -15.5 6.5t-6.5 15.5v2l21 137q3 16 13.5 27.5z" />
    <glyph glyph-name="ncaron" unicode="&#x148;" horiz-adv-x="621" 
d="M549 8q-8 -8 -19 -8h-76q-11 0 -19 8t-8 19v254q0 62 -29 97t-85 35q-52 0 -83 -36t-31 -96v-254q0 -11 -8 -19t-19 -8h-76q-11 0 -19 8t-8 19v466q0 11 8 19t19 8h76q11 0 19 -8t8 -19v-23q60 60 144 60q113 0 163.5 -65t50.5 -169v-269q0 -11 -8 -19zM264 599
q-8 4 -18 15l-92 102q-5 5 -5 13q0 16 16 16h43q9 0 15 -2.5t16 -8.5l74 -47l74 47q10 6 16 8.5t15 2.5h43q16 0 16 -16q0 -8 -5 -13l-92 -102q-10 -11 -18 -15t-19 -4h-60q-11 0 -19 4z" />
    <glyph glyph-name="ncommaaccent" unicode="&#x146;" horiz-adv-x="621" 
d="M549 8q-8 -8 -19 -8h-76q-11 0 -19 8t-8 19v254q0 62 -29 97t-85 35q-52 0 -83 -36t-31 -96v-254q0 -11 -8 -19t-19 -8h-76q-11 0 -19 8t-8 19v466q0 11 8 19t19 8h76q11 0 19 -8t8 -19v-23q60 60 144 60q113 0 163.5 -65t50.5 -169v-269q0 -11 -8 -19zM253.5 -61.5
q10.5 11.5 29.5 11.5h81q9 0 15.5 -6.5t6.5 -15.5q0 -4 -1 -7l-55 -139q-12 -32 -43 -32h-46q-9 0 -15.5 6.5t-6.5 15.5v2l21 137q3 16 13.5 27.5z" />
    <glyph glyph-name="eng" unicode="&#x14b;" horiz-adv-x="621" 
d="M506.5 -179.5q-50.5 -45.5 -144.5 -45.5h-25q-11 0 -19 8t-8 19v66q0 11 8 19t19 8h15q43 0 59 16t16 49v321q0 62 -29 97t-85 35q-52 0 -83 -36t-31 -96v-254q0 -11 -8 -19t-19 -8h-76q-11 0 -19 8t-8 19v466q0 11 8 19t19 8h76q11 0 19 -8t8 -19v-23q25 26 62 43t82 17
q113 0 163.5 -65t50.5 -169v-341q0 -89 -50.5 -134.5z" />
    <glyph glyph-name="ntilde" unicode="&#xf1;" horiz-adv-x="621" 
d="M549 8q-8 -8 -19 -8h-76q-11 0 -19 8t-8 19v254q0 62 -29 97t-85 35q-52 0 -83 -36t-31 -96v-254q0 -11 -8 -19t-19 -8h-76q-11 0 -19 8t-8 19v466q0 11 8 19t19 8h76q11 0 19 -8t8 -19v-23q60 60 144 60q113 0 163.5 -65t50.5 -169v-269q0 -11 -8 -19zM248.5 620
q-5.5 -4 -10.5 -12q-4 -7 -8 -10t-11 -3h-56q-9 0 -14 5.5t-5 13.5q0 26 13 53t36.5 45t55.5 18q26 0 42 -5.5t32 -15.5q12 -7 19.5 -10t18.5 -3t16.5 4t10.5 12q4 7 8 10t11 3h56q9 0 14 -5.5t5 -13.5q0 -26 -13 -53t-36.5 -45t-55.5 -18q-26 0 -42 5.5t-32 15.5
q-12 7 -19.5 10t-18.5 3t-16.5 -4z" />
    <glyph glyph-name="o" unicode="o" horiz-adv-x="595" 
d="M551 259q0 -26 -2 -50q-5 -61 -37 -111t-87.5 -79t-126.5 -29t-126.5 29t-87.5 79t-37 111q-1 12 -1 50q0 39 1 51q5 62 37 112t87.5 79t126.5 29t126.5 -29t87.5 -79t37 -112q2 -24 2 -51zM216.5 386q-33.5 -24 -39.5 -81q-1 -10 -1 -45t1 -45q6 -57 39.5 -81t81.5 -24
t81.5 24t39.5 81q2 20 2 45t-2 45q-6 57 -39.5 81t-81.5 24t-81.5 -24z" />
    <glyph glyph-name="oacute" unicode="&#xf3;" horiz-adv-x="595" 
d="M551 259q0 -26 -2 -50q-5 -61 -37 -111t-87.5 -79t-126.5 -29t-126.5 29t-87.5 79t-37 111q-1 12 -1 50q0 39 1 51q5 62 37 112t87.5 79t126.5 29t126.5 -29t87.5 -79t37 -112q2 -24 2 -51zM216.5 386q-33.5 -24 -39.5 -81q-1 -10 -1 -45t1 -45q6 -57 39.5 -81t81.5 -24
t81.5 24t39.5 81q2 20 2 45t-2 45q-6 57 -39.5 81t-81.5 24t-81.5 -24zM352 741.5q7 3.5 19 3.5h95q9 0 14 -5.5t5 -14.5q0 -7 -5 -12l-123 -101q-11 -9 -19.5 -13t-22.5 -4h-55q-16 0 -16 16q0 6 5 13l85 102q11 12 18 15.5z" />
    <glyph glyph-name="obreve" unicode="&#x14f;" horiz-adv-x="595" 
d="M551 259q0 -26 -2 -50q-5 -61 -37 -111t-87.5 -79t-126.5 -29t-126.5 29t-87.5 79t-37 111q-1 12 -1 50q0 39 1 51q5 62 37 112t87.5 79t126.5 29t126.5 -29t87.5 -79t37 -112q2 -24 2 -51zM216.5 386q-33.5 -24 -39.5 -81q-1 -10 -1 -45t1 -45q6 -57 39.5 -81t81.5 -24
t81.5 24t39.5 81q2 20 2 45t-2 45q-6 57 -39.5 81t-81.5 24t-81.5 -24zM159 739.5q5 5.5 14 5.5h57q9 0 14 -5.5t5 -13.5q0 -50 49 -50t49 50q0 8 5 13.5t14 5.5h57q9 0 14 -5.5t5 -13.5q0 -56 -33.5 -96t-110.5 -40t-110.5 40t-33.5 96q0 8 5 13.5z" />
    <glyph glyph-name="ocircumflex" unicode="&#xf4;" horiz-adv-x="595" 
d="M551 259q0 -26 -2 -50q-5 -61 -37 -111t-87.5 -79t-126.5 -29t-126.5 29t-87.5 79t-37 111q-1 12 -1 50q0 39 1 51q5 62 37 112t87.5 79t126.5 29t126.5 -29t87.5 -79t37 -112q2 -24 2 -51zM216.5 386q-33.5 -24 -39.5 -81q-1 -10 -1 -45t1 -45q6 -57 39.5 -81t81.5 -24
t81.5 24t39.5 81q2 20 2 45t-2 45q-6 57 -39.5 81t-81.5 24t-81.5 -24zM347 741q8 -4 18 -15l92 -102q5 -5 5 -13q0 -16 -16 -16h-43q-9 0 -15 2.5t-16 8.5l-74 47l-74 -47q-10 -6 -16 -8.5t-15 -2.5h-43q-16 0 -16 16q0 8 5 13l92 102q10 11 18 15t19 4h60q11 0 19 -4z" />
    <glyph glyph-name="odieresis" unicode="&#xf6;" horiz-adv-x="595" 
d="M551 259q0 -26 -2 -50q-5 -61 -37 -111t-87.5 -79t-126.5 -29t-126.5 29t-87.5 79t-37 111q-1 12 -1 50q0 39 1 51q5 62 37 112t87.5 79t126.5 29t126.5 -29t87.5 -79t37 -112q2 -24 2 -51zM216.5 386q-33.5 -24 -39.5 -81q-1 -10 -1 -45t1 -45q6 -57 39.5 -81t81.5 -24
t81.5 24t39.5 81q2 20 2 45t-2 45q-6 57 -39.5 81t-81.5 24t-81.5 -24zM255 729q8 -8 8 -19v-88q0 -11 -8 -19t-19 -8h-83q-11 0 -19 8t-8 19v88q0 11 8 19t19 8h83q11 0 19 -8zM462 729q8 -8 8 -19v-88q0 -11 -8 -19t-19 -8h-83q-11 0 -19 8t-8 19v88q0 11 8 19t19 8h83
q11 0 19 -8z" />
    <glyph glyph-name="ograve" unicode="&#xf2;" horiz-adv-x="595" 
d="M551 259q0 -26 -2 -50q-5 -61 -37 -111t-87.5 -79t-126.5 -29t-126.5 29t-87.5 79t-37 111q-1 12 -1 50q0 39 1 51q5 62 37 112t87.5 79t126.5 29t126.5 -29t87.5 -79t37 -112q2 -24 2 -51zM216.5 386q-33.5 -24 -39.5 -81q-1 -10 -1 -45t1 -45q6 -57 39.5 -81t81.5 -24
t81.5 24t39.5 81q2 20 2 45t-2 45q-6 57 -39.5 81t-81.5 24t-81.5 -24zM354 611q0 -16 -16 -16h-55q-14 0 -22.5 4t-19.5 13l-123 101q-5 5 -5 12q0 9 5 14.5t14 5.5h95q12 0 19 -3.5t18 -15.5l85 -102q5 -7 5 -13z" />
    <glyph glyph-name="ohungarumlaut" unicode="&#x151;" horiz-adv-x="595" 
d="M551 259q0 -26 -2 -50q-5 -61 -37 -111t-87.5 -79t-126.5 -29t-126.5 29t-87.5 79t-37 111q-1 12 -1 50q0 39 1 51q5 62 37 112t87.5 79t126.5 29t126.5 -29t87.5 -79t37 -112q2 -24 2 -51zM216.5 386q-33.5 -24 -39.5 -81q-1 -10 -1 -45t1 -45q6 -57 39.5 -81t81.5 -24
t81.5 24t39.5 81q2 20 2 45t-2 45q-6 57 -39.5 81t-81.5 24t-81.5 -24zM200.5 740.5q8.5 4.5 23.5 4.5h93q9 0 14.5 -5t5.5 -14q0 -7 -6 -13l-96 -104q-12 -14 -34 -14h-48q-16 0 -16 16q0 5 5 15l45 100q5 10 13.5 14.5zM401.5 740.5q8.5 4.5 23.5 4.5h93q9 0 14.5 -5
t5.5 -14q0 -7 -6 -13l-96 -104q-12 -14 -34 -14h-48q-16 0 -16 16q0 5 5 15l45 100q5 10 13.5 14.5z" />
    <glyph glyph-name="omacron" unicode="&#x14d;" horiz-adv-x="595" 
d="M551 259q0 -26 -2 -50q-5 -61 -37 -111t-87.5 -79t-126.5 -29t-126.5 29t-87.5 79t-37 111q-1 12 -1 50q0 39 1 51q5 62 37 112t87.5 79t126.5 29t126.5 -29t87.5 -79t37 -112q2 -24 2 -51zM216.5 386q-33.5 -24 -39.5 -81q-1 -10 -1 -45t1 -45q6 -57 39.5 -81t81.5 -24
t81.5 24t39.5 81q2 20 2 45t-2 45q-6 57 -39.5 81t-81.5 24t-81.5 -24zM150 603q-8 8 -8 19v66q0 11 8 19t19 8h259q11 0 19 -8t8 -19v-66q0 -11 -8 -19t-19 -8h-259q-11 0 -19 8z" />
    <glyph glyph-name="oslash" unicode="&#xf8;" horiz-adv-x="630" 
d="M583 417q8 3 11 3q9 0 15 -6t6 -15v-48q0 -13 -5 -20.5t-17 -12.5l-27 -11q2 -26 2 -50t-2 -48q-5 -61 -37 -111t-87.5 -79t-126.5 -29q-79 0 -138 35t-89 95l-42 -16q-7 -3 -11 -3q-9 0 -15 6t-6 15v48q0 14 5 21.5t17 11.5l27 10l-1 40q0 29 2 57q5 62 37 112t87.5 79
t126.5 29q78 0 137.5 -35.5t88.5 -94.5zM422 354q-29 56 -107 56q-48 0 -81.5 -24t-39.5 -81q-2 -18 -2 -41zM207 167q27 -57 108 -57q48 0 81.5 24t39.5 81q1 9 1 42z" />
    <glyph glyph-name="oslashacute" unicode="&#x1ff;" horiz-adv-x="630" 
d="M363 741.5q7 3.5 19 3.5h95q9 0 14 -5.5t5 -14.5q0 -7 -5 -12l-123 -101q-11 -9 -19.5 -13t-22.5 -4h-55q-16 0 -16 16q0 6 5 13l85 102q11 12 18 15.5zM583 417q8 3 11 3q9 0 15 -6t6 -15v-48q0 -13 -5 -20.5t-17 -12.5l-27 -11q2 -26 2 -50t-2 -48q-5 -61 -37 -111
t-87.5 -79t-126.5 -29q-79 0 -138 35t-89 95l-42 -16q-7 -3 -11 -3q-9 0 -15 6t-6 15v48q0 14 5 21.5t17 11.5l27 10l-1 40q0 29 2 57q5 62 37 112t87.5 79t126.5 29q78 0 137.5 -35.5t88.5 -94.5zM422 354q-29 56 -107 56q-48 0 -81.5 -24t-39.5 -81q-2 -18 -2 -41z
M207 167q27 -57 108 -57q48 0 81.5 24t39.5 81q1 9 1 42z" />
    <glyph glyph-name="otilde" unicode="&#xf5;" horiz-adv-x="595" 
d="M551 259q0 -26 -2 -50q-5 -61 -37 -111t-87.5 -79t-126.5 -29t-126.5 29t-87.5 79t-37 111q-1 12 -1 50q0 39 1 51q5 62 37 112t87.5 79t126.5 29t126.5 -29t87.5 -79t37 -112q2 -24 2 -51zM216.5 386q-33.5 -24 -39.5 -81q-1 -10 -1 -45t1 -45q6 -57 39.5 -81t81.5 -24
t81.5 24t39.5 81q2 20 2 45t-2 45q-6 57 -39.5 81t-81.5 24t-81.5 -24zM233.5 620q-5.5 -4 -10.5 -12q-4 -7 -8 -10t-11 -3h-56q-9 0 -14 5.5t-5 13.5q0 26 13 53t36.5 45t55.5 18q26 0 42 -5.5t32 -15.5q12 -7 19.5 -10t18.5 -3t16.5 4t10.5 12q4 7 8 10t11 3h56
q9 0 14 -5.5t5 -13.5q0 -26 -13 -53t-36.5 -45t-55.5 -18q-26 0 -42 5.5t-32 15.5q-12 7 -19.5 10t-18.5 3t-16.5 -4z" />
    <glyph glyph-name="oe" unicode="&#x153;" horiz-adv-x="951" 
d="M565 509.5q45 20.5 100 20.5q73 0 129 -34.5t86.5 -92.5t30.5 -127v-45q0 -11 -8 -19t-19 -8h-334q0 -43 34 -68.5t81 -25.5q56 0 82 23q11 10 16 12t17 2h93q9 0 15.5 -5.5t6.5 -13.5q0 -17 -27.5 -50.5t-79.5 -60.5t-123 -27q-56 0 -101.5 19.5t-77.5 56.5
q-34 -36 -82 -56t-107 -20q-71 0 -126.5 29t-87.5 79t-37 111q-1 12 -1 50q0 39 1 51q5 62 37 112t87.5 79t126.5 29q59 0 107.5 -20.5t82.5 -57.5q33 37 78 57.5zM215.5 386q-33.5 -24 -39.5 -81q-1 -10 -1 -45t1 -45q6 -57 39.5 -81t81.5 -24t81.5 24t39.5 81q2 20 2 45
t-2 45q-6 57 -39.5 81t-81.5 24t-81.5 -24zM776 318q-11 92 -111 92q-52 0 -81.5 -28t-33.5 -64h226z" />
    <glyph glyph-name="p" unicode="p" horiz-adv-x="619" 
d="M199 -163q0 -11 -8 -19t-19 -8h-76q-11 0 -19 8t-8 19v656q0 11 8 19t19 8h76q11 0 19 -8t8 -19v-23q21 24 58 42t93 18q65 0 114.5 -32.5t77.5 -86t31 -116.5q1 -10 1 -35t-1 -35q-3 -63 -31 -116.5t-77.5 -86t-114.5 -32.5q-55 0 -92 18t-59 42v-213zM411 373
q-34 37 -91 37q-50 0 -83 -29.5t-38 -82.5q-1 -10 -1 -38t1 -38q5 -51 38.5 -81.5t82.5 -30.5q51 0 84 30t39 92q2 20 2 28q0 76 -34 113z" />
    <glyph glyph-name="thorn" unicode="&#xfe;" horiz-adv-x="620" 
d="M200 -163q0 -11 -8 -19t-19 -8h-76q-11 0 -19 8t-8 19v846q0 11 8 19t19 8h76q11 0 19 -8t8 -19v-213q21 24 58 42t93 18q65 0 114.5 -32.5t77.5 -86t31 -116.5q1 -10 1 -35t-1 -35q-3 -63 -31 -116.5t-77.5 -86t-114.5 -32.5q-55 0 -92 18t-59 42v-213zM412 373
q-34 37 -91 37q-50 0 -83 -29.5t-38 -82.5q-1 -10 -1 -38t1 -38q5 -51 38.5 -81.5t82.5 -30.5q51 0 84 30t39 92q2 20 2 28q0 76 -34 113z" />
    <glyph glyph-name="q" unicode="q" horiz-adv-x="619" 
d="M45 260l1 35q3 63 31 116.5t77.5 86t114.5 32.5q56 0 93 -18t58 -42v23q0 11 8 19t19 8h76q11 0 19 -8t8 -19v-656q0 -11 -8 -19t-19 -8h-76q-11 0 -19 8t-8 19v213q-22 -24 -59 -42t-92 -18q-65 0 -114.5 32.5t-77.5 86t-31 116.5zM381.5 140.5q33.5 30.5 38.5 81.5
q2 20 2 38t-2 38q-5 53 -38 82.5t-83 29.5q-51 0 -84 -30t-39 -92q-1 -10 -1 -28q0 -76 33.5 -113t90.5 -37q49 0 82.5 30.5z" />
    <glyph glyph-name="r" unicode="r" horiz-adv-x="418" 
d="M225.5 373.5q-26.5 -26.5 -26.5 -86.5v-260q0 -11 -8 -19t-19 -8h-76q-11 0 -19 8t-8 19v466q0 11 8 19t19 8h76q11 0 19 -8t8 -19v-23q27 26 57 38t76 12h45q11 0 19 -8t8 -19v-66q0 -11 -8 -19t-19 -8h-65q-60 0 -86.5 -26.5z" />
    <glyph glyph-name="racute" unicode="&#x155;" horiz-adv-x="418" 
d="M225.5 373.5q-26.5 -26.5 -26.5 -86.5v-260q0 -11 -8 -19t-19 -8h-76q-11 0 -19 8t-8 19v466q0 11 8 19t19 8h76q11 0 19 -8t8 -19v-23q27 26 57 38t76 12h45q11 0 19 -8t8 -19v-66q0 -11 -8 -19t-19 -8h-65q-60 0 -86.5 -26.5zM285 741.5q7 3.5 19 3.5h95q9 0 14 -5.5
t5 -14.5q0 -7 -5 -12l-123 -101q-11 -9 -19.5 -13t-22.5 -4h-55q-16 0 -16 16q0 6 5 13l85 102q11 12 18 15.5z" />
    <glyph glyph-name="rcaron" unicode="&#x159;" horiz-adv-x="418" 
d="M225.5 373.5q-26.5 -26.5 -26.5 -86.5v-260q0 -11 -8 -19t-19 -8h-76q-11 0 -19 8t-8 19v466q0 11 8 19t19 8h76q11 0 19 -8t8 -19v-23q27 26 57 38t76 12h45q11 0 19 -8t8 -19v-66q0 -11 -8 -19t-19 -8h-65q-60 0 -86.5 -26.5zM187 599q-8 4 -18 15l-92 102q-5 5 -5 13
q0 16 16 16h43q9 0 15 -2.5t16 -8.5l74 -47l74 47q10 6 16 8.5t15 2.5h43q16 0 16 -16q0 -8 -5 -13l-92 -102q-10 -11 -18 -15t-19 -4h-60q-11 0 -19 4z" />
    <glyph glyph-name="rcommaaccent" unicode="&#x157;" horiz-adv-x="418" 
d="M225.5 373.5q-26.5 -26.5 -26.5 -86.5v-260q0 -11 -8 -19t-19 -8h-76q-11 0 -19 8t-8 19v466q0 11 8 19t19 8h76q11 0 19 -8t8 -19v-23q27 26 57 38t76 12h45q11 0 19 -8t8 -19v-66q0 -11 -8 -19t-19 -8h-65q-60 0 -86.5 -26.5zM68.5 -61.5q10.5 11.5 29.5 11.5h81
q9 0 15.5 -6.5t6.5 -15.5q0 -4 -1 -7l-55 -139q-12 -32 -43 -32h-46q-9 0 -15.5 6.5t-6.5 15.5v2l21 137q3 16 13.5 27.5z" />
    <glyph glyph-name="s" unicode="s" horiz-adv-x="520" 
d="M82.5 266q-33.5 39 -33.5 103q0 41 25 78t72 60t109 23t109.5 -18t74 -48t28.5 -63q1 -11 -7.5 -19t-19.5 -8h-77q-12 0 -19 3.5t-15 10.5q-12 10 -27.5 16t-46.5 6q-33 0 -54.5 -10t-21.5 -31q0 -15 10.5 -23.5t36.5 -15t94 -21.5q86 -18 124 -58t38 -102
q0 -41 -27 -77.5t-77.5 -59t-117.5 -22.5t-116.5 20.5t-76 52.5t-28.5 66q-1 11 7.5 19t19.5 8h77q11 0 18 -4t15 -12q14 -14 31 -22t53 -8t64 9.5t28 29.5q0 13 -10 20.5t-31 13.5t-72 17l-39 8q-84 19 -117.5 58z" />
    <glyph glyph-name="sacute" unicode="&#x15b;" horiz-adv-x="520" 
d="M82.5 266q-33.5 39 -33.5 103q0 41 25 78t72 60t109 23t109.5 -18t74 -48t28.5 -63q1 -11 -7.5 -19t-19.5 -8h-77q-12 0 -19 3.5t-15 10.5q-12 10 -27.5 16t-46.5 6q-33 0 -54.5 -10t-21.5 -31q0 -15 10.5 -23.5t36.5 -15t94 -21.5q86 -18 124 -58t38 -102
q0 -41 -27 -77.5t-77.5 -59t-117.5 -22.5t-116.5 20.5t-76 52.5t-28.5 66q-1 11 7.5 19t19.5 8h77q11 0 18 -4t15 -12q14 -14 31 -22t53 -8t64 9.5t28 29.5q0 13 -10 20.5t-31 13.5t-72 17l-39 8q-84 19 -117.5 58zM310 741.5q7 3.5 19 3.5h95q9 0 14 -5.5t5 -14.5
q0 -7 -5 -12l-123 -101q-11 -9 -19.5 -13t-22.5 -4h-55q-16 0 -16 16q0 6 5 13l85 102q11 12 18 15.5z" />
    <glyph glyph-name="scaron" unicode="&#x161;" horiz-adv-x="520" 
d="M82.5 266q-33.5 39 -33.5 103q0 41 25 78t72 60t109 23t109.5 -18t74 -48t28.5 -63q1 -11 -7.5 -19t-19.5 -8h-77q-12 0 -19 3.5t-15 10.5q-12 10 -27.5 16t-46.5 6q-33 0 -54.5 -10t-21.5 -31q0 -15 10.5 -23.5t36.5 -15t94 -21.5q86 -18 124 -58t38 -102
q0 -41 -27 -77.5t-77.5 -59t-117.5 -22.5t-116.5 20.5t-76 52.5t-28.5 66q-1 11 7.5 19t19.5 8h77q11 0 18 -4t15 -12q14 -14 31 -22t53 -8t64 9.5t28 29.5q0 13 -10 20.5t-31 13.5t-72 17l-39 8q-84 19 -117.5 58zM211 599q-8 4 -18 15l-92 102q-5 5 -5 13q0 16 16 16h43
q9 0 15 -2.5t16 -8.5l74 -47l74 47q10 6 16 8.5t15 2.5h43q16 0 16 -16q0 -8 -5 -13l-92 -102q-10 -11 -18 -15t-19 -4h-60q-11 0 -19 4z" />
    <glyph glyph-name="scedilla" unicode="&#x15f;" horiz-adv-x="520" 
d="M82.5 266q-33.5 39 -33.5 103q0 41 25 78t72 60t109 23t109.5 -18t74 -48t28.5 -63q1 -11 -7.5 -19t-19.5 -8h-77q-12 0 -19 3.5t-15 10.5q-12 10 -27.5 16t-46.5 6q-33 0 -54.5 -10t-21.5 -31q0 -15 10.5 -23.5t36.5 -15t94 -21.5q86 -18 124 -58t38 -102
q0 -41 -26.5 -77t-76.5 -58.5t-116 -23.5l-21 -46q16 10 35 10q38 0 57 -23.5t19 -62.5q0 -38 -26 -63t-73 -25q-30 0 -56 13t-26 27q0 7 5 11l14 13q8 7 14 7q4 0 17 -7.5t32 -7.5q18 0 28 8.5t10 23.5q0 30 -38 30q-9 0 -21.5 -5t-18.5 -5q-8 0 -14 6l-16 18l-5.5 7.5
t-2.5 7.5q0 6 6 18l22 49q-51 8 -88.5 29t-57 50t-19.5 58q0 10 8 17.5t19 7.5h77q11 0 18 -4t15 -12q14 -14 31 -22t53 -8t64 9.5t28 29.5q0 13 -10 20.5t-31 13.5t-72 17l-39 8q-84 19 -117.5 58z" />
    <glyph glyph-name="scircumflex" unicode="&#x15d;" horiz-adv-x="520" 
d="M82.5 266q-33.5 39 -33.5 103q0 41 25 78t72 60t109 23t109.5 -18t74 -48t28.5 -63q1 -11 -7.5 -19t-19.5 -8h-77q-12 0 -19 3.5t-15 10.5q-12 10 -27.5 16t-46.5 6q-33 0 -54.5 -10t-21.5 -31q0 -15 10.5 -23.5t36.5 -15t94 -21.5q86 -18 124 -58t38 -102
q0 -41 -27 -77.5t-77.5 -59t-117.5 -22.5t-116.5 20.5t-76 52.5t-28.5 66q-1 11 7.5 19t19.5 8h77q11 0 18 -4t15 -12q14 -14 31 -22t53 -8t64 9.5t28 29.5q0 13 -10 20.5t-31 13.5t-72 17l-39 8q-84 19 -117.5 58zM309 741q8 -4 18 -15l92 -102q5 -5 5 -13q0 -16 -16 -16
h-43q-9 0 -15 2.5t-16 8.5l-74 47l-74 -47q-10 -6 -16 -8.5t-15 -2.5h-43q-16 0 -16 16q0 8 5 13l92 102q10 11 18 15t19 4h60q11 0 19 -4z" />
    <glyph glyph-name="scommaaccent" unicode="&#x219;" horiz-adv-x="520" 
d="M82.5 266q-33.5 39 -33.5 103q0 41 25 78t72 60t109 23t109.5 -18t74 -48t28.5 -63q1 -11 -7.5 -19t-19.5 -8h-77q-12 0 -19 3.5t-15 10.5q-12 10 -27.5 16t-46.5 6q-33 0 -54.5 -10t-21.5 -31q0 -15 10.5 -23.5t36.5 -15t94 -21.5q86 -18 124 -58t38 -102
q0 -41 -27 -77.5t-77.5 -59t-117.5 -22.5t-116.5 20.5t-76 52.5t-28.5 66q-1 11 7.5 19t19.5 8h77q11 0 18 -4t15 -12q14 -14 31 -22t53 -8t64 9.5t28 29.5q0 13 -10 20.5t-31 13.5t-72 17l-39 8q-84 19 -117.5 58zM196.5 -61.5q10.5 11.5 29.5 11.5h81q9 0 15.5 -6.5
t6.5 -15.5q0 -4 -1 -7l-55 -139q-12 -32 -43 -32h-46q-9 0 -15.5 6.5t-6.5 15.5v2l21 137q3 16 13.5 27.5z" />
    <glyph glyph-name="germandbls" unicode="&#xdf;" horiz-adv-x="618" 
d="M320 120q54 0 87.5 23t33.5 70q0 46 -32.5 70t-88.5 24h-39q-10 0 -16 6t-6 16v76q0 10 6 16t16 6h33q56 0 86.5 18.5t30.5 62.5q0 39 -31.5 60.5t-85.5 21.5q-57 0 -86 -31t-29 -108v-424q0 -11 -8 -19t-19 -8h-76q-11 0 -19 8t-8 19v424q0 124 63 191.5t182 67.5
q77 0 133 -28t85 -74t29 -100q0 -48 -16.5 -80.5t-44.5 -58.5q71 -56 71 -156q0 -53 -25.5 -101.5t-82 -80t-143.5 -31.5h-34q-11 0 -19 8t-8 19v66q0 11 8 19t19 8h34z" />
    <glyph glyph-name="longs" unicode="&#x17f;" horiz-adv-x="315" 
d="M238 8q-8 -8 -19 -8h-76q-11 0 -19 8t-8 19v373h-66q-11 0 -19 8t-8 19v66q0 11 8 19t19 8h66v45q0 93 51.5 134t146.5 41h81q11 0 19 -8t8 -19v-66q0 -11 -8 -19t-19 -8h-71q-40 0 -59 -14.5t-19 -50.5v-528q0 -11 -8 -19z" />
    <glyph glyph-name="t" unicode="t" horiz-adv-x="439" 
d="M261.5 137.5q17.5 -17.5 60.5 -17.5h61q11 0 19 -8t8 -19v-66q0 -11 -8 -19t-19 -8h-74q-95 0 -145 46.5t-50 138.5v215h-66q-11 0 -19 8t-8 19v66q0 11 8 19t19 8h66v163q0 11 8 19t19 8h76q11 0 19 -8t8 -19v-163h129q11 0 19 -8t8 -19v-66q0 -11 -8 -19t-19 -8h-129
v-212q0 -33 17.5 -50.5z" />
    <glyph glyph-name="tbar" unicode="&#x167;" horiz-adv-x="446" 
d="M378 358q11 0 19 -8t8 -19v-66q0 -11 -8 -19t-19 -8h-129v-50q0 -33 17.5 -50.5t60.5 -17.5h61q11 0 19 -8t8 -19v-66q0 -11 -8 -19t-19 -8h-74q-95 0 -145 46.5t-50 138.5v53h-66q-11 0 -19 8t-8 19v66q0 11 8 19t19 8h66v42h-66q-11 0 -19 8t-8 19v66q0 11 8 19t19 8
h66v163q0 11 8 19t19 8h76q11 0 19 -8t8 -19v-163h129q11 0 19 -8t8 -19v-66q0 -11 -8 -19t-19 -8h-129v-42h129z" />
    <glyph glyph-name="tcaron" unicode="&#x165;" horiz-adv-x="487" 
d="M261.5 137.5q17.5 -17.5 60.5 -17.5h61q11 0 19 -8t8 -19v-66q0 -11 -8 -19t-19 -8h-74q-95 0 -145 46.5t-50 138.5v215h-66q-11 0 -19 8t-8 19v66q0 11 8 19t19 8h66v163q0 11 8 19t19 8h76q11 0 19 -8t8 -19v-163h129q11 0 19 -8t8 -19v-66q0 -11 -8 -19t-19 -8h-129
v-212q0 -33 17.5 -50.5zM454.5 698.5q10.5 11.5 29.5 11.5h81q9 0 15.5 -6.5t6.5 -15.5q0 -4 -1 -7l-55 -139q-12 -32 -43 -32h-46q-9 0 -15.5 6.5t-6.5 15.5v2l21 137q3 16 13.5 27.5z" />
    <glyph glyph-name="uni021B" unicode="&#x21b;" horiz-adv-x="439" 
d="M261.5 137.5q17.5 -17.5 60.5 -17.5h61q11 0 19 -8t8 -19v-66q0 -11 -8 -19t-19 -8h-74q-95 0 -145 46.5t-50 138.5v215h-66q-11 0 -19 8t-8 19v66q0 11 8 19t19 8h66v163q0 11 8 19t19 8h76q11 0 19 -8t8 -19v-163h129q11 0 19 -8t8 -19v-66q0 -11 -8 -19t-19 -8h-129
v-212q0 -33 17.5 -50.5zM130.5 -61.5q10.5 11.5 29.5 11.5h81q9 0 15.5 -6.5t6.5 -15.5q0 -4 -1 -7l-55 -139q-12 -32 -43 -32h-46q-9 0 -15.5 6.5t-6.5 15.5v2l21 137q3 16 13.5 27.5z" />
    <glyph glyph-name="u" unicode="u" horiz-adv-x="611" 
d="M72 512q8 8 19 8h76q11 0 19 -8t8 -19v-254q0 -63 26.5 -97.5t82.5 -34.5q52 0 80.5 35.5t28.5 96.5v254q0 11 8 19t19 8h76q11 0 19 -8t8 -19v-466q0 -11 -8 -19t-19 -8h-76q-11 0 -19 8t-8 19v23q-58 -60 -139 -60q-113 0 -161 64.5t-48 169.5v269q0 11 8 19z" />
    <glyph glyph-name="uacute" unicode="&#xfa;" horiz-adv-x="611" 
d="M72 512q8 8 19 8h76q11 0 19 -8t8 -19v-254q0 -63 26.5 -97.5t82.5 -34.5q52 0 80.5 35.5t28.5 96.5v254q0 11 8 19t19 8h76q11 0 19 -8t8 -19v-466q0 -11 -8 -19t-19 -8h-76q-11 0 -19 8t-8 19v23q-58 -60 -139 -60q-113 0 -161 64.5t-48 169.5v269q0 11 8 19z
M352 741.5q7 3.5 19 3.5h95q9 0 14 -5.5t5 -14.5q0 -7 -5 -12l-123 -101q-11 -9 -19.5 -13t-22.5 -4h-55q-16 0 -16 16q0 6 5 13l85 102q11 12 18 15.5z" />
    <glyph glyph-name="ubreve" unicode="&#x16d;" horiz-adv-x="611" 
d="M72 512q8 8 19 8h76q11 0 19 -8t8 -19v-254q0 -63 26.5 -97.5t82.5 -34.5q52 0 80.5 35.5t28.5 96.5v254q0 11 8 19t19 8h76q11 0 19 -8t8 -19v-466q0 -11 -8 -19t-19 -8h-76q-11 0 -19 8t-8 19v23q-58 -60 -139 -60q-113 0 -161 64.5t-48 169.5v269q0 11 8 19z
M164 739.5q5 5.5 14 5.5h57q9 0 14 -5.5t5 -13.5q0 -50 49 -50t49 50q0 8 5 13.5t14 5.5h57q9 0 14 -5.5t5 -13.5q0 -56 -33.5 -96t-110.5 -40t-110.5 40t-33.5 96q0 8 5 13.5z" />
    <glyph glyph-name="ucircumflex" unicode="&#xfb;" horiz-adv-x="611" 
d="M72 512q8 8 19 8h76q11 0 19 -8t8 -19v-254q0 -63 26.5 -97.5t82.5 -34.5q52 0 80.5 35.5t28.5 96.5v254q0 11 8 19t19 8h76q11 0 19 -8t8 -19v-466q0 -11 -8 -19t-19 -8h-76q-11 0 -19 8t-8 19v23q-58 -60 -139 -60q-113 0 -161 64.5t-48 169.5v269q0 11 8 19zM352 741
q8 -4 18 -15l92 -102q5 -5 5 -13q0 -16 -16 -16h-43q-9 0 -15 2.5t-16 8.5l-74 47l-74 -47q-10 -6 -16 -8.5t-15 -2.5h-43q-16 0 -16 16q0 8 5 13l92 102q10 11 18 15t19 4h60q11 0 19 -4z" />
    <glyph glyph-name="udieresis" unicode="&#xfc;" horiz-adv-x="611" 
d="M72 512q8 8 19 8h76q11 0 19 -8t8 -19v-254q0 -63 26.5 -97.5t82.5 -34.5q52 0 80.5 35.5t28.5 96.5v254q0 11 8 19t19 8h76q11 0 19 -8t8 -19v-466q0 -11 -8 -19t-19 -8h-76q-11 0 -19 8t-8 19v23q-58 -60 -139 -60q-113 0 -161 64.5t-48 169.5v269q0 11 8 19zM260 729
q8 -8 8 -19v-88q0 -11 -8 -19t-19 -8h-83q-11 0 -19 8t-8 19v88q0 11 8 19t19 8h83q11 0 19 -8zM467 729q8 -8 8 -19v-88q0 -11 -8 -19t-19 -8h-83q-11 0 -19 8t-8 19v88q0 11 8 19t19 8h83q11 0 19 -8z" />
    <glyph glyph-name="ugrave" unicode="&#xf9;" horiz-adv-x="611" 
d="M72 512q8 8 19 8h76q11 0 19 -8t8 -19v-254q0 -63 26.5 -97.5t82.5 -34.5q52 0 80.5 35.5t28.5 96.5v254q0 11 8 19t19 8h76q11 0 19 -8t8 -19v-466q0 -11 -8 -19t-19 -8h-76q-11 0 -19 8t-8 19v23q-58 -60 -139 -60q-113 0 -161 64.5t-48 169.5v269q0 11 8 19zM363 611
q0 -16 -16 -16h-55q-14 0 -22.5 4t-19.5 13l-123 101q-5 5 -5 12q0 9 5 14.5t14 5.5h95q12 0 19 -3.5t18 -15.5l85 -102q5 -7 5 -13z" />
    <glyph glyph-name="uhungarumlaut" unicode="&#x171;" horiz-adv-x="611" 
d="M72 512q8 8 19 8h76q11 0 19 -8t8 -19v-254q0 -63 26.5 -97.5t82.5 -34.5q52 0 80.5 35.5t28.5 96.5v254q0 11 8 19t19 8h76q11 0 19 -8t8 -19v-466q0 -11 -8 -19t-19 -8h-76q-11 0 -19 8t-8 19v23q-58 -60 -139 -60q-113 0 -161 64.5t-48 169.5v269q0 11 8 19z
M208.5 740.5q8.5 4.5 23.5 4.5h93q9 0 14.5 -5t5.5 -14q0 -7 -6 -13l-96 -104q-12 -14 -34 -14h-48q-16 0 -16 16q0 5 5 15l45 100q5 10 13.5 14.5zM409.5 740.5q8.5 4.5 23.5 4.5h93q9 0 14.5 -5t5.5 -14q0 -7 -6 -13l-96 -104q-12 -14 -34 -14h-48q-16 0 -16 16q0 5 5 15
l45 100q5 10 13.5 14.5z" />
    <glyph glyph-name="umacron" unicode="&#x16b;" horiz-adv-x="611" 
d="M72 512q8 8 19 8h76q11 0 19 -8t8 -19v-254q0 -63 26.5 -97.5t82.5 -34.5q52 0 80.5 35.5t28.5 96.5v254q0 11 8 19t19 8h76q11 0 19 -8t8 -19v-466q0 -11 -8 -19t-19 -8h-76q-11 0 -19 8t-8 19v23q-58 -60 -139 -60q-113 0 -161 64.5t-48 169.5v269q0 11 8 19zM155 603
q-8 8 -8 19v66q0 11 8 19t19 8h259q11 0 19 -8t8 -19v-66q0 -11 -8 -19t-19 -8h-259q-11 0 -19 8z" />
    <glyph glyph-name="uogonek" unicode="&#x173;" horiz-adv-x="611" 
d="M72 512q8 8 19 8h76q11 0 19 -8t8 -19v-254q0 -63 26.5 -97.5t82.5 -34.5q52 0 80.5 35.5t28.5 96.5v254q0 11 8 19t19 8h76q11 0 19 -8t8 -19v-466q0 -11 -8 -19t-19 -8h-23q-24 -2 -38.5 -18.5t-14.5 -45.5q0 -30 16 -47t42 -17h15q10 0 16 -6t6 -16v-48q0 -10 -6 -16
t-16 -6h-19q-64 0 -107 36t-43 95q0 7 2 25q8 54 67 97v17q-58 -60 -139 -60q-113 0 -161 64.5t-48 169.5v269q0 11 8 19z" />
    <glyph glyph-name="uring" unicode="&#x16f;" horiz-adv-x="611" 
d="M72 512q8 8 19 8h76q11 0 19 -8t8 -19v-254q0 -63 26.5 -97.5t82.5 -34.5q52 0 80.5 35.5t28.5 96.5v254q0 11 8 19t19 8h76q11 0 19 -8t8 -19v-466q0 -11 -8 -19t-19 -8h-76q-11 0 -19 8t-8 19v23q-58 -60 -139 -60q-113 0 -161 64.5t-48 169.5v269q0 11 8 19zM367 736
q26 -24 26 -61t-26 -61t-64 -24t-64 24t-26 61t26 61t64 24t64 -24zM324.5 653.5q8.5 8.5 8.5 21.5t-8.5 21.5t-21.5 8.5t-21.5 -8.5t-8.5 -21.5t8.5 -21.5t21.5 -8.5t21.5 8.5z" />
    <glyph glyph-name="utilde" unicode="&#x169;" horiz-adv-x="611" 
d="M72 512q8 8 19 8h76q11 0 19 -8t8 -19v-254q0 -63 26.5 -97.5t82.5 -34.5q52 0 80.5 35.5t28.5 96.5v254q0 11 8 19t19 8h76q11 0 19 -8t8 -19v-466q0 -11 -8 -19t-19 -8h-76q-11 0 -19 8t-8 19v23q-58 -60 -139 -60q-113 0 -161 64.5t-48 169.5v269q0 11 8 19z
M238.5 620q-5.5 -4 -10.5 -12q-4 -7 -8 -10t-11 -3h-56q-9 0 -14 5.5t-5 13.5q0 26 13 53t36.5 45t55.5 18q26 0 42 -5.5t32 -15.5q12 -7 19.5 -10t18.5 -3t16.5 4t10.5 12q4 7 8 10t11 3h56q9 0 14 -5.5t5 -13.5q0 -26 -13 -53t-36.5 -45t-55.5 -18q-26 0 -42 5.5t-32 15.5
q-12 7 -19.5 10t-18.5 3t-16.5 -4z" />
    <glyph glyph-name="v" unicode="v" horiz-adv-x="588" 
d="M27 486q-1 3 -1 7q0 11 8 19t19 8h75q22 0 33 -24l133 -310l133 310q11 24 33 24h75q11 0 19 -8t8 -19q0 -4 -1 -7l-201 -461q-10 -25 -33 -25h-66q-23 0 -33 25z" />
    <glyph glyph-name="w" unicode="w" horiz-adv-x="830" 
d="M667 496q4 11 10 17.5t18 6.5h76q11 0 19 -8t8 -19q0 -4 -1 -7l-151 -461q-8 -25 -29 -25h-76q-12 0 -18 6.5t-11 18.5l-97 267l-97 -267q-5 -12 -11 -18.5t-18 -6.5h-76q-21 0 -29 25l-151 461q-1 3 -1 7q0 11 8 19t19 8h76q12 0 18 -6.5t10 -17.5l90 -286l96 286
q3 9 10.5 16.5t17.5 7.5h76q10 0 17.5 -7.5t10.5 -16.5l96 -286z" />
    <glyph glyph-name="wacute" unicode="&#x1e83;" horiz-adv-x="830" 
d="M667 496q4 11 10 17.5t18 6.5h76q11 0 19 -8t8 -19q0 -4 -1 -7l-151 -461q-8 -25 -29 -25h-76q-12 0 -18 6.5t-11 18.5l-97 267l-97 -267q-5 -12 -11 -18.5t-18 -6.5h-76q-21 0 -29 25l-151 461q-1 3 -1 7q0 11 8 19t19 8h76q12 0 18 -6.5t10 -17.5l90 -286l96 286
q3 9 10.5 16.5t17.5 7.5h76q10 0 17.5 -7.5t10.5 -16.5l96 -286zM470 741.5q7 3.5 19 3.5h95q9 0 14 -5.5t5 -14.5q0 -7 -5 -12l-123 -101q-11 -9 -19.5 -13t-22.5 -4h-55q-16 0 -16 16q0 6 5 13l85 102q11 12 18 15.5z" />
    <glyph glyph-name="wcircumflex" unicode="&#x175;" horiz-adv-x="830" 
d="M667 496q4 11 10 17.5t18 6.5h76q11 0 19 -8t8 -19q0 -4 -1 -7l-151 -461q-8 -25 -29 -25h-76q-12 0 -18 6.5t-11 18.5l-97 267l-97 -267q-5 -12 -11 -18.5t-18 -6.5h-76q-21 0 -29 25l-151 461q-1 3 -1 7q0 11 8 19t19 8h76q12 0 18 -6.5t10 -17.5l90 -286l96 286
q3 9 10.5 16.5t17.5 7.5h76q10 0 17.5 -7.5t10.5 -16.5l96 -286zM464 741q8 -4 18 -15l92 -102q5 -5 5 -13q0 -16 -16 -16h-43q-9 0 -15 2.5t-16 8.5l-74 47l-74 -47q-10 -6 -16 -8.5t-15 -2.5h-43q-16 0 -16 16q0 8 5 13l92 102q10 11 18 15t19 4h60q11 0 19 -4z" />
    <glyph glyph-name="wdieresis" unicode="&#x1e85;" horiz-adv-x="830" 
d="M667 496q4 11 10 17.5t18 6.5h76q11 0 19 -8t8 -19q0 -4 -1 -7l-151 -461q-8 -25 -29 -25h-76q-12 0 -18 6.5t-11 18.5l-97 267l-97 -267q-5 -12 -11 -18.5t-18 -6.5h-76q-21 0 -29 25l-151 461q-1 3 -1 7q0 11 8 19t19 8h76q12 0 18 -6.5t10 -17.5l90 -286l96 286
q3 9 10.5 16.5t17.5 7.5h76q10 0 17.5 -7.5t10.5 -16.5l96 -286zM372 729q8 -8 8 -19v-88q0 -11 -8 -19t-19 -8h-83q-11 0 -19 8t-8 19v88q0 11 8 19t19 8h83q11 0 19 -8zM579 729q8 -8 8 -19v-88q0 -11 -8 -19t-19 -8h-83q-11 0 -19 8t-8 19v88q0 11 8 19t19 8h83
q11 0 19 -8z" />
    <glyph glyph-name="wgrave" unicode="&#x1e81;" horiz-adv-x="830" 
d="M667 496q4 11 10 17.5t18 6.5h76q11 0 19 -8t8 -19q0 -4 -1 -7l-151 -461q-8 -25 -29 -25h-76q-12 0 -18 6.5t-11 18.5l-97 267l-97 -267q-5 -12 -11 -18.5t-18 -6.5h-76q-21 0 -29 25l-151 461q-1 3 -1 7q0 11 8 19t19 8h76q12 0 18 -6.5t10 -17.5l90 -286l96 286
q3 9 10.5 16.5t17.5 7.5h76q10 0 17.5 -7.5t10.5 -16.5l96 -286zM473 611q0 -16 -16 -16h-55q-14 0 -22.5 4t-19.5 13l-123 101q-5 5 -5 12q0 9 5 14.5t14 5.5h95q12 0 19 -3.5t18 -15.5l85 -102q5 -7 5 -13z" />
    <glyph glyph-name="x" unicode="x" horiz-adv-x="585" 
d="M173 19q-9 -11 -19.5 -15t-24.5 -4h-77q-11 0 -18.5 8t-7.5 20q0 8 4 14l180 223l-172 213q-4 6 -4 14q0 12 7.5 20t18.5 8h77q14 0 24.5 -4t19.5 -15l113 -140l112 140q9 11 19.5 15t24.5 4h77q11 0 18.5 -8t7.5 -20q0 -8 -4 -14l-174 -217l178 -219q4 -6 4 -14
q0 -12 -7.5 -20t-18.5 -8h-77q-14 0 -24.5 4t-19.5 15l-119 146z" />
    <glyph glyph-name="y" unicode="y" horiz-adv-x="589" 
d="M29 486q-1 3 -1 7q0 11 8 19t19 8h75q11 0 20.5 -7.5t12.5 -16.5l133 -309l133 309q3 9 12.5 16.5t20.5 7.5h75q11 0 19 -8t8 -19q0 -4 -1 -7l-281 -652q-3 -9 -12.5 -16.5t-20.5 -7.5h-75q-11 0 -19 8t-8 19q0 4 1 7l79 184z" />
    <glyph glyph-name="yacute" unicode="&#xfd;" horiz-adv-x="589" 
d="M29 486q-1 3 -1 7q0 11 8 19t19 8h75q11 0 20.5 -7.5t12.5 -16.5l133 -309l133 309q3 9 12.5 16.5t20.5 7.5h75q11 0 19 -8t8 -19q0 -4 -1 -7l-281 -652q-3 -9 -12.5 -16.5t-20.5 -7.5h-75q-11 0 -19 8t-8 19q0 4 1 7l79 184zM344 741.5q7 3.5 19 3.5h95q9 0 14 -5.5
t5 -14.5q0 -7 -5 -12l-123 -101q-11 -9 -19.5 -13t-22.5 -4h-55q-16 0 -16 16q0 6 5 13l85 102q11 12 18 15.5z" />
    <glyph glyph-name="ycircumflex" unicode="&#x177;" horiz-adv-x="589" 
d="M29 486q-1 3 -1 7q0 11 8 19t19 8h75q11 0 20.5 -7.5t12.5 -16.5l133 -309l133 309q3 9 12.5 16.5t20.5 7.5h75q11 0 19 -8t8 -19q0 -4 -1 -7l-281 -652q-3 -9 -12.5 -16.5t-20.5 -7.5h-75q-11 0 -19 8t-8 19q0 4 1 7l79 184zM345 741q8 -4 18 -15l92 -102q5 -5 5 -13
q0 -16 -16 -16h-43q-9 0 -15 2.5t-16 8.5l-74 47l-74 -47q-10 -6 -16 -8.5t-15 -2.5h-43q-16 0 -16 16q0 8 5 13l92 102q10 11 18 15t19 4h60q11 0 19 -4z" />
    <glyph glyph-name="ydieresis" unicode="&#xff;" horiz-adv-x="589" 
d="M29 486q-1 3 -1 7q0 11 8 19t19 8h75q11 0 20.5 -7.5t12.5 -16.5l133 -309l133 309q3 9 12.5 16.5t20.5 7.5h75q11 0 19 -8t8 -19q0 -4 -1 -7l-281 -652q-3 -9 -12.5 -16.5t-20.5 -7.5h-75q-11 0 -19 8t-8 19q0 4 1 7l79 184zM253 729q8 -8 8 -19v-88q0 -11 -8 -19
t-19 -8h-83q-11 0 -19 8t-8 19v88q0 11 8 19t19 8h83q11 0 19 -8zM460 729q8 -8 8 -19v-88q0 -11 -8 -19t-19 -8h-83q-11 0 -19 8t-8 19v88q0 11 8 19t19 8h83q11 0 19 -8z" />
    <glyph glyph-name="ygrave" unicode="&#x1ef3;" horiz-adv-x="589" 
d="M29 486q-1 3 -1 7q0 11 8 19t19 8h75q11 0 20.5 -7.5t12.5 -16.5l133 -309l133 309q3 9 12.5 16.5t20.5 7.5h75q11 0 19 -8t8 -19q0 -4 -1 -7l-281 -652q-3 -9 -12.5 -16.5t-20.5 -7.5h-75q-11 0 -19 8t-8 19q0 4 1 7l79 184zM356 611q0 -16 -16 -16h-55q-14 0 -22.5 4
t-19.5 13l-123 101q-5 5 -5 12q0 9 5 14.5t14 5.5h95q12 0 19 -3.5t18 -15.5l85 -102q5 -7 5 -13z" />
    <glyph glyph-name="z" unicode="z" horiz-adv-x="541" 
d="M495 112q8 -8 8 -19v-66q0 -11 -8 -19t-19 -8h-406q-11 0 -19 8t-8 19v68q0 18 14 34l250 271h-227q-11 0 -19 8t-8 19v66q0 11 8 19t19 8h376q11 0 19 -8t8 -19v-68q0 -16 -14 -34l-250 -271h257q11 0 19 -8z" />
    <glyph glyph-name="zacute" unicode="&#x17a;" horiz-adv-x="541" 
d="M495 112q8 -8 8 -19v-66q0 -11 -8 -19t-19 -8h-406q-11 0 -19 8t-8 19v68q0 18 14 34l250 271h-227q-11 0 -19 8t-8 19v66q0 11 8 19t19 8h376q11 0 19 -8t8 -19v-68q0 -16 -14 -34l-250 -271h257q11 0 19 -8zM327 741.5q7 3.5 19 3.5h95q9 0 14 -5.5t5 -14.5
q0 -7 -5 -12l-123 -101q-11 -9 -19.5 -13t-22.5 -4h-55q-16 0 -16 16q0 6 5 13l85 102q11 12 18 15.5z" />
    <glyph glyph-name="zcaron" unicode="&#x17e;" horiz-adv-x="541" 
d="M495 112q8 -8 8 -19v-66q0 -11 -8 -19t-19 -8h-406q-11 0 -19 8t-8 19v68q0 18 14 34l250 271h-227q-11 0 -19 8t-8 19v66q0 11 8 19t19 8h376q11 0 19 -8t8 -19v-68q0 -16 -14 -34l-250 -271h257q11 0 19 -8zM224 599q-8 4 -18 15l-92 102q-5 5 -5 13q0 16 16 16h43
q9 0 15 -2.5t16 -8.5l74 -47l74 47q10 6 16 8.5t15 2.5h43q16 0 16 -16q0 -8 -5 -13l-92 -102q-10 -11 -18 -15t-19 -4h-60q-11 0 -19 4z" />
    <glyph glyph-name="zdotaccent" unicode="&#x17c;" horiz-adv-x="541" 
d="M495 112q8 -8 8 -19v-66q0 -11 -8 -19t-19 -8h-406q-11 0 -19 8t-8 19v68q0 18 14 34l250 271h-227q-11 0 -19 8t-8 19v66q0 11 8 19t19 8h376q11 0 19 -8t8 -19v-68q0 -16 -14 -34l-250 -271h257q11 0 19 -8zM336 734q8 -8 8 -19v-93q0 -11 -8 -19t-19 -8h-88
q-11 0 -19 8t-8 19v93q0 11 8 19t19 8h88q11 0 19 -8z" />
    <glyph glyph-name="ordfeminine" unicode="&#xaa;" horiz-adv-x="361" 
d="M219 463q-8 -14 -32.5 -24t-51.5 -10q-41 0 -67.5 24.5t-26.5 55.5q0 35 31.5 59.5t85.5 32.5l59 9q0 11 -9 21t-28 10q-16 0 -32 -11q-2 -1 -9.5 -5t-16.5 -4h-37q-22 0 -22 15q0 11 13.5 27.5t40 29t63.5 12.5q57 0 90 -27.5t33 -77.5v-144q0 -10 -6 -16t-16 -6h-40
q-10 0 -16 6t-6 16v7zM173 545q-41 -7 -41 -32q0 -20 27 -20t42.5 18.5t15.5 40.5z" />
    <glyph glyph-name="ordmasculine" unicode="&#xba;" horiz-adv-x="350" 
d="M84.5 458.5q-36.5 29.5 -39.5 81.5l-1 27l1 27q3 51 41.5 81t88.5 30t88.5 -30t41.5 -81q1 -5 1 -27t-1 -27q-3 -52 -39.5 -81.5t-90.5 -29.5t-90.5 29.5zM215 567q0 36 -8.5 52t-31.5 16q-20 0 -28.5 -11.5t-10.5 -34.5l-1 -22l1 -22q2 -25 10.5 -35.5t28.5 -10.5
t28.5 10.5t10.5 35.5q1 5 1 22z" />
    <glyph glyph-name="uni0410" unicode="&#x410;" horiz-adv-x="702" 
d="M429.5 692q8.5 -8 14.5 -26l245 -632q1 -3 1 -7q0 -11 -8 -19t-19 -8h-72q-30 0 -39 25l-43 111h-316l-43 -111q-9 -25 -39 -25h-72q-11 0 -19 8t-8 19q0 4 1 7l245 632q6 18 14.5 26t23.5 8h110q15 0 23.5 -8zM351 546l-110 -285h220z" />
    <glyph glyph-name="uni0411" unicode="&#x411;" horiz-adv-x="650" 
d="M86 8q-8 8 -8 19v646q0 11 8 19t19 8h437q11 0 19 -8t8 -19v-71q0 -11 -8 -19t-19 -8h-329v-151h189q63 0 111 -26.5t74.5 -74.5t26.5 -111q0 -59 -25 -107.5t-73 -76.5t-114 -28h-297q-11 0 -19 8zM381 125q49 0 73.5 24.5t24.5 62.5t-24.5 62.5t-73.5 24.5h-168v-174
h168z" />
    <glyph glyph-name="uni0412" unicode="&#x412;" horiz-adv-x="686" 
d="M86 8q-8 8 -8 19v646q0 11 8 19t19 8h295q79 0 129.5 -31t73 -76t22.5 -90q0 -52 -23 -86.5t-46 -49.5q36 -24 59.5 -63.5t23.5 -93.5q0 -52 -25.5 -100.5t-74.5 -79t-116 -30.5h-318q-11 0 -19 8zM213 575v-154h177q51 0 75.5 19t24.5 58t-24.5 58t-75.5 19h-177z
M398 125q53 0 79.5 23t26.5 62t-27.5 62.5t-78.5 23.5h-185v-171h185z" />
    <glyph glyph-name="uni0413" unicode="&#x413;" horiz-adv-x="581" 
d="M556 692q8 -8 8 -19v-71q0 -11 -8 -19t-19 -8h-324v-548q0 -11 -8 -19t-19 -8h-81q-11 0 -19 8t-8 19v646q0 11 8 19t19 8h432q11 0 19 -8z" />
    <glyph glyph-name="uni0403" unicode="&#x403;" horiz-adv-x="581" 
d="M556 692q8 -8 8 -19v-71q0 -11 -8 -19t-19 -8h-324v-548q0 -11 -8 -19t-19 -8h-81q-11 0 -19 8t-8 19v646q0 11 8 19t19 8h432q11 0 19 -8zM380 896.5q7 3.5 19 3.5h100q9 0 14 -5.5t5 -14.5q0 -7 -5 -12l-123 -101q-11 -9 -19.5 -13t-22.5 -4h-60q-16 0 -16 16q0 6 5 13
l85 102q11 12 18 15.5z" />
    <glyph glyph-name="uni0490" unicode="&#x490;" horiz-adv-x="581" 
d="M214 27q0 -11 -8 -19t-19 -8h-82q-11 0 -19 8t-8 19v646q0 11 8 19t19 8h323v83q0 11 8 19t19 8h82q11 0 19 -8t8 -19v-181q0 -11 -8 -19t-19 -8h-323v-548z" />
    <glyph glyph-name="uni0414" unicode="&#x414;" horiz-adv-x="741" 
d="M629 692q8 -8 8 -19v-548h33q11 0 19 -8t8 -19v-181q0 -11 -8 -19t-19 -8h-81q-11 0 -19 8t-8 19v83h-409v-83q0 -11 -8 -19t-19 -8h-81q-11 0 -19 8t-8 19v181q0 11 7.5 18.5t17.5 8.5h14q37 0 54.5 28.5t17.5 89.5v430q0 11 8 19t19 8h454q11 0 19 -8zM502 575h-238
v-342q0 -80 -21 -108h259v450z" />
    <glyph glyph-name="uni0415" unicode="&#x415;" horiz-adv-x="617" 
d="M213 291h301q11 0 19 8t8 19v71q0 11 -8 19t-19 8h-301v159h323q11 0 19 8t8 19v71q0 11 -8 19t-19 8h-431q-11 0 -19 -8t-8 -19v-646q0 -11 8 -19t19 -8h439q11 0 19 8t8 19v71q0 11 -8 19t-19 8h-331v166z" />
    <glyph glyph-name="uni0400" unicode="&#x400;" horiz-adv-x="617" 
d="M213 291h301q11 0 19 8t8 19v71q0 11 -8 19t-19 8h-301v159h323q11 0 19 8t8 19v71q0 11 -8 19t-19 8h-431q-11 0 -19 -8t-8 -19v-646q0 -11 8 -19t19 -8h439q11 0 19 8t8 19v71q0 11 -8 19t-19 8h-331v166zM382 766q0 -16 -16 -16h-60q-14 0 -22.5 4t-19.5 13l-123 101
q-5 5 -5 12q0 9 5 14.5t14 5.5h100q12 0 19 -3.5t18 -15.5l85 -102q5 -7 5 -13z" />
    <glyph glyph-name="uni0401" unicode="&#x401;" horiz-adv-x="617" 
d="M266 884q8 -8 8 -19v-88q0 -11 -8 -19t-19 -8h-83q-11 0 -19 8t-8 19v88q0 11 8 19t19 8h83q11 0 19 -8zM503 884q8 -8 8 -19v-88q0 -11 -8 -19t-19 -8h-83q-11 0 -19 8t-8 19v88q0 11 8 19t19 8h83q11 0 19 -8zM213 291h301q11 0 19 8t8 19v71q0 11 -8 19t-19 8h-301
v159h323q11 0 19 8t8 19v71q0 11 -8 19t-19 8h-431q-11 0 -19 -8t-8 -19v-646q0 -11 8 -19t19 -8h439q11 0 19 8t8 19v71q0 11 -8 19t-19 8h-331v166z" />
    <glyph glyph-name="uni0416" unicode="&#x416;" horiz-adv-x="776" 
d="M739 692q8 -8 8 -19q0 -5 -3 -11l-219 -305l229 -319q3 -6 3 -11q0 -11 -8 -19t-19 -8h-84q-17 0 -25.5 7t-16.5 18l-148 207v-205q0 -11 -8 -19t-19 -8h-81q-11 0 -19 8t-8 19v206l-149 -208q-8 -11 -16.5 -18t-25.5 -7h-84q-11 0 -19 8t-8 19q0 5 3 11l229 319
l-219 305q-3 6 -3 11q0 11 8 19t19 8h84q17 0 25.5 -7t16.5 -18l139 -195v193q0 11 8 19t19 8h81q11 0 19 -8t8 -19v-191l138 193q8 11 16.5 18t25.5 7h84q11 0 19 -8z" />
    <glyph glyph-name="uni0417" unicode="&#x417;" horiz-adv-x="643" 
d="M143 201q16 0 30 -26q18 -33 53.5 -46.5t88.5 -13.5q147 0 147 89q0 47 -40.5 68.5t-106.5 21.5h-89q-11 1 -18 8.5t-7 18.5v71q0 11 7.5 18.5t17.5 8.5h83q64 0 98.5 20.5t34.5 61.5q0 43 -34.5 63.5t-97.5 20.5q-39 0 -73.5 -14t-51.5 -46q-14 -26 -30 -26h-81
q-12 0 -20 7.5t-7 19.5q3 54 37 95.5t92.5 65t133.5 23.5q125 0 196 -56.5t71 -152.5q0 -79 -63 -139q38 -29 60.5 -70t22.5 -88q0 -101 -77.5 -157.5t-204.5 -56.5q-85 0 -147 23t-95.5 65t-37.5 96q-1 12 7 19.5t20 7.5h81z" />
    <glyph glyph-name="uni0418" unicode="&#x418;" horiz-adv-x="707" 
d="M105 0q-11 0 -19 8t-8 19v646q0 11 8 19t19 8h81q11 0 19 -8t8 -19v-412l280 416q16 23 39 23h70q11 0 19 -8t8 -19v-646q0 -11 -8 -19t-19 -8h-81q-11 0 -19 8t-8 19v412l-280 -416q-16 -23 -39 -23h-70z" />
    <glyph glyph-name="uni0419" unicode="&#x419;" horiz-adv-x="707" 
d="M209 894.5q5 5.5 14 5.5h57q9 0 14 -5.5t5 -13.5q0 -23 14 -36.5t40 -13.5t40 13.5t14 36.5q0 8 5 13.5t14 5.5h57q9 0 14 -5.5t5 -13.5q0 -55 -35.5 -95.5t-113.5 -40.5t-113.5 40.5t-35.5 95.5q0 8 5 13.5zM105 0q-11 0 -19 8t-8 19v646q0 11 8 19t19 8h81q11 0 19 -8
t8 -19v-412l280 416q16 23 39 23h70q11 0 19 -8t8 -19v-646q0 -11 -8 -19t-19 -8h-81q-11 0 -19 8t-8 19v412l-280 -416q-16 -23 -39 -23h-70z" />
    <glyph glyph-name="uni040D" unicode="&#x40d;" horiz-adv-x="707" 
d="M405 766q0 -16 -16 -16h-60q-14 0 -22.5 4t-19.5 13l-123 101q-5 5 -5 12q0 9 5 14.5t14 5.5h100q12 0 19 -3.5t18 -15.5l85 -102q5 -7 5 -13zM105 0q-11 0 -19 8t-8 19v646q0 11 8 19t19 8h81q11 0 19 -8t8 -19v-412l280 416q16 23 39 23h70q11 0 19 -8t8 -19v-646
q0 -11 -8 -19t-19 -8h-81q-11 0 -19 8t-8 19v412l-280 -416q-16 -23 -39 -23h-70z" />
    <glyph glyph-name="uni041A" unicode="&#x41a;" horiz-adv-x="628" 
d="M616 27q0 -11 -8 -19t-19 -8h-95q-17 0 -26.5 6.5t-19.5 16.5l-235 265v-261q0 -11 -8 -19t-19 -8h-81q-11 0 -19 8t-8 19v646q0 11 8 19t19 8h81q11 0 19 -8t8 -19v-235l218 240q10 11 20 16.5t25 5.5h92q11 0 19 -8t8 -19q0 -7 -6 -15l-269 -293l289 -323q7 -8 7 -15z
" />
    <glyph glyph-name="uni040C" unicode="&#x40c;" horiz-adv-x="628" 
d="M364 896.5q7 3.5 19 3.5h100q9 0 14 -5.5t5 -14.5q0 -7 -5 -12l-123 -101q-11 -9 -19.5 -13t-22.5 -4h-60q-16 0 -16 16q0 6 5 13l85 102q11 12 18 15.5zM616 27q0 -11 -8 -19t-19 -8h-95q-17 0 -26.5 6.5t-19.5 16.5l-235 265v-261q0 -11 -8 -19t-19 -8h-81q-11 0 -19 8
t-8 19v646q0 11 8 19t19 8h81q11 0 19 -8t8 -19v-235l218 240q10 11 20 16.5t25 5.5h92q11 0 19 -8t8 -19q0 -7 -6 -15l-269 -293l289 -323q7 -8 7 -15z" />
    <glyph glyph-name="uni041B" unicode="&#x41b;" horiz-adv-x="722" 
d="M271 195q0 -93 -51.5 -149t-151.5 -56h-25q-11 0 -19 8t-8 19v71q0 11 8 19t19 8h10q39 0 61 24t22 64v470q0 11 8 19t19 8h454q11 0 19 -8t8 -19v-646q0 -11 -8 -19t-19 -8h-81q-11 0 -19 8t-8 19v548h-238v-380z" />
    <glyph glyph-name="uni041C" unicode="&#x41c;" horiz-adv-x="812" 
d="M596 673q9 12 17.5 19.5t25.5 7.5h68q11 0 19 -8t8 -19v-646q0 -11 -8 -19t-19 -8h-81q-11 0 -19 8t-8 19v391l-130 -225q-16 -25 -37 -25h-52q-21 0 -37 25l-130 225v-391q0 -11 -8 -19t-19 -8h-81q-11 0 -19 8t-8 19v646q0 11 8 19t19 8h68q17 0 25.5 -7.5t17.5 -19.5
l190 -330z" />
    <glyph glyph-name="uni041D" unicode="&#x41d;" horiz-adv-x="728" 
d="M642 692q8 -8 8 -19v-646q0 -11 -8 -19t-19 -8h-81q-11 0 -19 8t-8 19v264h-302v-264q0 -11 -8 -19t-19 -8h-81q-11 0 -19 7.5t-8 19.5v646q0 11 8 19t19 8h81q11 0 19 -8t8 -19v-257h302v257q0 11 8 19t19 8h81q11 0 19 -8z" />
    <glyph glyph-name="uni041E" unicode="&#x41e;" horiz-adv-x="696" 
d="M562 635q74 -75 80 -196q2 -46 2 -80q0 -45 -2 -99q-6 -120 -80 -195t-214 -75t-214 75t-80 195q-2 54 -2 99q0 34 2 80q6 120 80 195.5t214 75.5t214 -75zM235.5 545q-42.5 -40 -46.5 -111q-2 -50 -2 -84q0 -35 2 -85q4 -71 46.5 -110.5t112.5 -39.5t112.5 39.5
t46.5 110.5q2 25 2 85q0 59 -2 84q-4 71 -46.5 111t-112.5 40t-112.5 -40z" />
    <glyph glyph-name="uni041F" unicode="&#x41f;" horiz-adv-x="728" 
d="M642 692q8 -8 8 -19v-646q0 -11 -8 -19t-19 -8h-81q-11 0 -19 8t-8 19v548h-302v-548q0 -11 -8 -19t-19 -8h-81q-11 0 -19 8t-8 19v646q0 11 8 19t19 8h518q11 0 19 -8z" />
    <glyph glyph-name="uni0420" unicode="&#x420;" horiz-adv-x="659" 
d="M561 642.5q67 -57.5 67 -166.5t-67 -167.5t-188 -58.5h-160v-223q0 -11 -8 -19t-19 -8h-81q-11 0 -19 8t-8 19v646q0 11 8 19t19 8h268q121 0 188 -57.5zM368 375q60 0 92.5 23.5t32.5 77.5t-32 76.5t-93 22.5h-155v-200h155z" />
    <glyph glyph-name="uni0421" unicode="&#x421;" horiz-adv-x="684" 
d="M618 248q12 0 20 -7.5t7 -19.5q-4 -58 -36.5 -111t-98 -86.5t-163.5 -33.5q-134 0 -210 75.5t-84 200.5q-2 50 -2 84t2 84q8 125 84 200.5t210 75.5q98 0 163.5 -33.5t98 -86.5t36.5 -111q1 -12 -7 -19.5t-20 -7.5h-81q-10 0 -19 7t-11 19q-8 45 -47.5 76t-112.5 31
q-74 0 -114.5 -42t-44.5 -109q-2 -50 -2 -84t2 -84q4 -67 44.5 -109t114.5 -42q73 0 113 31t48 76q2 12 10.5 19t18.5 7h81z" />
    <glyph glyph-name="uni0422" unicode="&#x422;" horiz-adv-x="593" 
d="M563 692q8 -8 8 -19v-71q0 -11 -8 -19t-19 -8h-180v-548q0 -11 -8 -19t-19 -8h-81q-11 0 -19 8t-8 19v548h-180q-11 0 -19 8t-8 19v71q0 11 8 19t19 8h495q11 0 19 -8z" />
    <glyph glyph-name="uni0423" unicode="&#x423;" horiz-adv-x="636" 
d="M20 673q0 10 8 18.5t19 8.5h75q18 0 26.5 -6.5t15.5 -18.5l163 -309l163 309q7 12 15.5 18.5t26.5 6.5h75q11 0 19 -8t8 -19q0 -5 -2 -9l-244 -460q-6 -12 -10 -18q-34 -65 -59 -101.5t-62.5 -60.5t-91.5 -24h-75q-11 0 -19 8t-8 19v71q0 11 8 19t19 8h57q30 0 53 23.5
t54 78.5l-232 437q-2 4 -2 9z" />
    <glyph glyph-name="uni040E" unicode="&#x40e;" horiz-adv-x="636" 
d="M20 673q0 10 8 18.5t19 8.5h75q18 0 26.5 -6.5t15.5 -18.5l163 -309l163 309q7 12 15.5 18.5t26.5 6.5h75q11 0 19 -8t8 -19q0 -5 -2 -9l-244 -460q-6 -12 -10 -18q-34 -65 -59 -101.5t-62.5 -60.5t-91.5 -24h-75q-11 0 -19 8t-8 19v71q0 11 8 19t19 8h57q30 0 53 23.5
t54 78.5l-232 437q-2 4 -2 9zM183 894.5q5 5.5 14 5.5h57q9 0 14 -5.5t5 -13.5q0 -23 14 -36.5t40 -13.5t40 13.5t14 36.5q0 8 5 13.5t14 5.5h57q9 0 14 -5.5t5 -13.5q0 -55 -35.5 -95.5t-113.5 -40.5t-113.5 40.5t-35.5 95.5q0 8 5 13.5z" />
    <glyph glyph-name="uni0424" unicode="&#x424;" horiz-adv-x="773" 
d="M446 712q8 -8 8 -19v-82q77 -2 144 -34.5t107.5 -91.5t40.5 -135t-40.5 -135t-107.5 -91.5t-144 -34.5v-82q0 -11 -8 -19t-19 -8h-81q-11 0 -19 8t-8 19v82q-77 2 -144 34.5t-107.5 91.5t-40.5 135t40.5 135t107.5 91.5t144 34.5v82q0 11 8 19t19 8h81q11 0 19 -8z
M201 442.5q-38 -40.5 -38 -92.5t38 -92.5t118 -43.5v272q-80 -3 -118 -43.5zM454 214q80 3 118 43.5t38 92.5t-38 92.5t-118 43.5v-272z" />
    <glyph glyph-name="uni0425" unicode="&#x425;" horiz-adv-x="663" 
d="M505.5 7q-8.5 7 -16.5 18l-159 221l-158 -221q-8 -11 -16.5 -18t-25.5 -7h-84q-11 0 -19 8t-8 19q0 5 3 11l229 319l-219 305q-3 6 -3 11q0 11 8 19t19 8h84q17 0 25.5 -7t16.5 -18l151 -211l150 211q8 11 16.5 18t25.5 7h84q11 0 19 -8t8 -19q0 -5 -3 -11l-221 -309
l227 -315q3 -6 3 -11q0 -11 -8 -19t-19 -8h-84q-17 0 -25.5 7z" />
    <glyph glyph-name="uni0427" unicode="&#x427;" horiz-adv-x="658" 
d="M207 410q33 -33 93 -33h145v296q0 11 8 19t19 8h81q11 0 19 -8t8 -19v-646q0 -11 -8 -19t-19 -8h-82q-11 0 -19 8t-8 19v225h-159q-74 0 -130 30t-86 86t-30 130v175q0 11 8 19t19 8h81q11 0 19 -8t8 -19v-170q0 -60 33 -93z" />
    <glyph glyph-name="uni0426" unicode="&#x426;" horiz-adv-x="742" 
d="M495 673q0 11 8 19t19 8h81q11 0 19 -8t8 -19v-548h46q11 0 19 -8t8 -19v-181q0 -11 -8 -19t-19 -8h-76q-11 0 -19 8t-8 19v83h-468q-11 0 -19 8t-8 19v646q0 11 8 19t19 8h81q11 0 19 -8t8 -19v-548h282v548z" />
    <glyph glyph-name="uni0428" unicode="&#x428;" horiz-adv-x="913" 
d="M86 8q-8 8 -8 19v646q0 11 8 19t19 8h81q11 0 19 -8t8 -19v-548h176v548q0 11 8 19t19 8h81q11 0 19 -8t8 -19v-548h176v548q0 11 8 19t19 8h81q11 0 19 -8t8 -19v-646q0 -11 -8 -19t-19 -8h-703q-11 0 -19 8z" />
    <glyph glyph-name="uni0429" unicode="&#x429;" horiz-adv-x="947" 
d="M86 8q-8 8 -8 19v646q0 11 8 19t19 8h81q11 0 19 -8t8 -19v-548h176v548q0 11 8 19t19 8h81q11 0 19 -8t8 -19v-548h176v548q0 11 8 19t19 8h81q11 0 19 -8t8 -19v-548h46q11 0 19 -8t8 -19v-181q0 -11 -8 -19t-19 -8h-76q-11 0 -19 8t-8 19v83h-673q-11 0 -19 8z" />
    <glyph glyph-name="uni040F" unicode="&#x40f;" horiz-adv-x="690" 
d="M413 -83q0 -11 -8 -19t-19 -8h-82q-11 0 -19 8t-8 19v83h-172q-11 0 -19 8t-8 19v646q0 11 8 19t19 8h82q11 0 19 -8t8 -19v-548h262v548q0 11 8 19t19 8h82q11 0 19 -8t8 -19v-646q0 -11 -8 -19t-19 -8h-172v-83z" />
    <glyph glyph-name="uni042C" unicode="&#x42c;" horiz-adv-x="643" 
d="M186 700q11 0 19 -8t8 -19v-249h189q63 0 111 -26.5t74.5 -74.5t26.5 -111q0 -59 -25 -107.5t-73 -76.5t-114 -28h-297q-11 0 -19 8t-8 19v646q0 11 8 19t19 8h81zM382 125q49 0 73 24.5t24 62.5q0 39 -24 63t-73 24h-169v-174h169z" />
    <glyph glyph-name="uni042A" unicode="&#x42a;" horiz-adv-x="719" 
d="M262 700q11 0 19 -8t8 -19v-249h189q63 0 111 -26.5t74.5 -74.5t26.5 -111q0 -59 -25 -107.5t-73 -76.5t-114 -28h-297q-11 0 -19 8t-8 19v548h-106q-11 0 -19 8t-8 19v71q0 11 8 19t19 8h214zM457 125q49 0 73.5 24.5t24.5 62.5t-24.5 62.5t-73.5 24.5h-168v-174h168z
" />
    <glyph glyph-name="uni042B" unicode="&#x42b;" horiz-adv-x="867" 
d="M186 700q11 0 19 -8t8 -19v-249h189q63 0 111 -26.5t74.5 -74.5t26.5 -111q0 -59 -25 -107.5t-73 -76.5t-114 -28h-297q-11 0 -19 8t-8 19v646q0 11 8 19t19 8h81zM781 692q8 -8 8 -19v-646q0 -11 -8 -19t-19 -8h-81q-11 0 -19 8t-8 19v646q0 11 8 19t19 8h81q11 0 19 -8
zM382 125q49 0 73 24.5t24 62.5q0 39 -24 63t-73 24h-169v-174h169z" />
    <glyph glyph-name="uni0409" unicode="&#x409;" horiz-adv-x="1016" 
d="M271 205q0 -101 -53 -158t-160 -57h-15q-11 0 -19 8t-8 19v71q0 11 8 19t19 8h10q39 0 61 24t22 64v470q0 11 8 19t19 8h396q11 0 19 -8t8 -19v-249h189q63 0 111 -26.5t74.5 -74.5t26.5 -111q0 -59 -25 -107.5t-73 -76.5t-114 -28h-297q-11 0 -19 8t-8 19v548h-180v-370
zM755 125q49 0 73 24.5t24 62.5q0 39 -24 63t-73 24h-169v-174h169z" />
    <glyph glyph-name="uni040A" unicode="&#x40a;" horiz-adv-x="999" 
d="M542 700q11 0 19 -8t8 -19v-249h189q63 0 111 -26.5t74.5 -74.5t26.5 -111q0 -59 -25 -107.5t-73 -76.5t-114 -28h-297q-11 0 -19 8t-8 19v264h-221v-264q0 -11 -8 -19t-19 -8h-81q-11 0 -19 7.5t-8 19.5v646q0 11 8 19t19 8h81q11 0 19 -8t8 -19v-257h221v257q0 11 8 19
t19 8h81zM738 125q49 0 73 24.5t24 62.5q0 39 -24 63t-73 24h-169v-174h169z" />
    <glyph glyph-name="uni0405" unicode="&#x405;" horiz-adv-x="648" 
d="M585 506.5q-8 -7.5 -20 -7.5h-70q-16 0 -25 6t-16 18q-17 28 -49 45t-87 17q-54 0 -91 -22t-37 -59q0 -30 17.5 -46.5t54.5 -27.5t121 -29q121 -26 175 -73t54 -129q0 -60 -35 -107.5t-100.5 -74.5t-153.5 -27q-75 0 -140 24t-105 68.5t-43 101.5q-1 12 7 19.5t20 7.5h70
q16 0 25.5 -6t15.5 -18q17 -33 49.5 -52.5t100.5 -19.5q66 0 110 21t44 63q0 24 -17 38.5t-48 24t-94 24.5q-25 5 -65 15q-105 26 -151.5 71t-46.5 132q0 59 34.5 106t94.5 73.5t134 26.5q84 0 145.5 -28.5t93.5 -71.5t35 -84q1 -12 -7 -19.5z" />
    <glyph glyph-name="uni0404" unicode="&#x404;" horiz-adv-x="684" 
d="M51 293q-1 25 -1 59t1 59q5 141 78.5 220t222.5 79q94 0 159 -31t97.5 -77t34.5 -90q1 -12 -7 -19.5t-20 -7.5h-81q-18 0 -27 17q-10 19 -22.5 34.5t-46 32t-87.5 16.5q-80 0 -122 -47.5t-42 -124.5h235q11 0 19 -8t8 -19v-71q0 -11 -8 -19t-19 -8h-234q3 -91 44.5 -132
t118.5 -41q54 0 87.5 16.5t46 32t22.5 34.5q9 17 27 17h81q12 0 20 -7.5t7 -19.5q-2 -44 -34.5 -90t-97.5 -77t-159 -31q-291 0 -301 303z" />
    <glyph glyph-name="uni042D" unicode="&#x42d;" horiz-adv-x="684" 
d="M148 215q19 0 27 -17q10 -19 22.5 -34.5t46 -32t87.5 -16.5q77 0 118.5 41t44.5 132h-234q-11 0 -19 8t-8 19v71q0 11 8 19t19 8h235q0 77 -42 124.5t-122 47.5q-54 0 -87.5 -16.5t-46 -32t-22.5 -34.5q-8 -17 -27 -17h-81q-12 0 -20 7.5t-7 19.5q2 44 34.5 90t97.5 77
t159 31q149 0 222.5 -79t78.5 -220q2 -50 2 -59t-2 -59q-10 -303 -301 -303q-94 0 -159 31t-97.5 77t-34.5 90q-1 12 7 19.5t20 7.5h81z" />
    <glyph glyph-name="uni0406" unicode="&#x406;" horiz-adv-x="291" 
d="M86 8q-8 8 -8 19v646q0 11 8 19t19 8h81q11 0 19 -8t8 -19v-646q0 -11 -8 -19t-19 -8h-81q-11 0 -19 8z" />
    <glyph glyph-name="uni0407" unicode="&#x407;" horiz-adv-x="291" 
d="M86 8q-8 8 -8 19v646q0 11 8 19t19 8h81q11 0 19 -8t8 -19v-646q0 -11 -8 -19t-19 -8h-81q-11 0 -19 8zM87 884q8 -8 8 -19v-88q0 -11 -8 -19t-19 -8h-83q-11 0 -19 8t-8 19v88q0 11 8 19t19 8h83q11 0 19 -8zM324 884q8 -8 8 -19v-88q0 -11 -8 -19t-19 -8h-83
q-11 0 -19 8t-8 19v88q0 11 8 19t19 8h83q11 0 19 -8z" />
    <glyph glyph-name="uni0408" unicode="&#x408;" horiz-adv-x="655" 
d="M119 575q-11 0 -19 8t-8 19v71q0 11 8 19t19 8h436q11 0 19 -8t8 -19v-423q0 -127 -72 -193.5t-206 -66.5q-135 0 -203.5 61t-74.5 160q-1 12 7 19.5t20 7.5h81q9 0 17.5 -5.5t9.5 -13.5q9 -45 44 -74.5t99 -29.5q69 0 106 36.5t37 104.5v319h-328z" />
    <glyph glyph-name="uni040B" unicode="&#x40b;" horiz-adv-x="761" 
d="M549 342q-33 33 -93 33h-145v-348q0 -11 -8 -19t-19 -8h-81q-11 0 -19 8t-8 19v548h-129q-11 0 -19 8t-8 19v71q0 11 8 19t19 8h404q11 0 19 -8t8 -19v-71q0 -11 -8 -19t-19 -8h-139v-75h159q74 0 130 -30t86 -86t30 -130v-227q0 -11 -8 -19t-19 -8h-81q-11 0 -19 8
t-8 19v222q0 60 -33 93z" />
    <glyph glyph-name="uni042E" unicode="&#x42e;" horiz-adv-x="996" 
d="M430.5 631q74.5 79 217.5 79q140 0 214 -76t80 -200q2 -50 2 -84q0 -35 -2 -85q-6 -123 -79.5 -199t-214.5 -76q-143 0 -217.5 81t-76.5 220h-141v-264q0 -11 -8 -19t-19 -8h-81q-11 0 -19 8t-8 19v646q0 11 8 19t19 8h81q11 0 19 -8t8 -19v-257h141q2 136 76.5 215z
M535.5 545q-42.5 -40 -46.5 -111q-2 -50 -2 -84q0 -35 2 -85q4 -71 46.5 -110.5t112.5 -39.5t112.5 39.5t46.5 110.5q2 25 2 85q0 59 -2 84q-4 71 -46.5 111t-112.5 40t-112.5 -40z" />
    <glyph glyph-name="uni042F" unicode="&#x42f;" horiz-adv-x="670" 
d="M565 700q11 0 19 -8t8 -19v-646q0 -11 -8 -19t-19 -8h-81q-11 0 -19 8t-8 19v233h-133l-131 -233q-13 -27 -43 -27h-85q-9 0 -15.5 6.5t-6.5 15.5q0 5 3 11l138 247q-64 25 -98 76.5t-34 124.5q0 103 66 161t189 58h258zM457 575h-145q-62 0 -93.5 -20.5t-31.5 -73.5
t32 -74.5t93 -21.5h145v190z" />
    <glyph glyph-name="uni0402" unicode="&#x402;" horiz-adv-x="762" 
d="M549 342q-33 33 -93 33h-145v-348q0 -11 -8 -19t-19 -8h-81q-11 0 -19 8t-8 19v548h-129q-11 0 -19 8t-8 19v71q0 11 8 19t19 8h404q11 0 19 -8t8 -19v-71q0 -11 -8 -19t-19 -8h-139v-75h159q74 0 130 -30t86 -86t30 -130v-281q0 -198 -190 -198h-38q-11 0 -19 8t-8 19
v71q0 11 8 19t19 8h15q43 0 60.5 17.5t17.5 50.5v281q0 60 -33 93z" />
    <glyph glyph-name="uni0430" unicode="&#x430;" horiz-adv-x="570" 
d="M445.5 476q60.5 -54 60.5 -155v-294q0 -11 -8 -19t-19 -8h-76q-11 0 -19 8t-8 19v33q-23 -32 -63.5 -51t-97.5 -19q-84 0 -133 43.5t-49 112.5q0 67 47.5 106.5t132.5 54.5l163 28q0 38 -25.5 56.5t-68.5 18.5q-23 0 -37.5 -6.5t-28.5 -19.5q-15 -14 -33 -14h-93
q-10 0 -16.5 6.5t-5.5 15.5q6 31 31.5 63t72 53.5t110.5 21.5q103 0 163.5 -54zM376 232l-136 -24q-40 -7 -58.5 -20.5t-18.5 -36.5q0 -20 20.5 -30.5t51.5 -10.5q44 0 76 16t48.5 41.5t16.5 54.5v10z" />
    <glyph glyph-name="uni0431" unicode="&#x431;" horiz-adv-x="588" 
d="M267 722q8 8 19 8h76q11 0 19 -8t8 -19q0 -44 -21 -80t-66 -91q-23 -27 -51 -65q21 3 44 3q71 0 128 -27t90 -81t33 -132t-33 -132t-90 -81t-128 -27q-70 0 -127 31t-90.5 88t-33.5 131q0 82 21.5 145t50 104t72.5 92q37 41 54 67t17 55q0 11 8 19zM384 144q32 34 32 86
t-32 86t-89 34t-89 -34t-32 -86t32 -86t89 -34t89 34z" />
    <glyph glyph-name="uni0432" unicode="&#x432;" horiz-adv-x="601" 
d="M75 6q-6 6 -6 14v480q0 8 6 14t14 6h281q77 0 124.5 -39.5t47.5 -103.5q0 -40 -13 -64.5t-37 -41.5q32 -20 46 -49.5t14 -70.5q0 -72 -45.5 -111.5t-119.5 -39.5h-298q-8 0 -14 6zM199 403v-80h152q33 0 47 9t14 31t-14 31t-47 9h-152zM357 117q34 0 49.5 10t15.5 34
t-15.5 34.5t-49.5 10.5h-158v-89h158z" />
    <glyph glyph-name="uni0433" unicode="&#x433;" horiz-adv-x="504" 
d="M482 512q8 -8 8 -19v-66q0 -11 -8 -19t-19 -8h-264v-373q0 -11 -8 -19t-19 -8h-76q-11 0 -19 8t-8 19v466q0 11 8 19t19 8h367q11 0 19 -8z" />
    <glyph glyph-name="uni0453" unicode="&#x453;" horiz-adv-x="504" 
d="M482 512q8 -8 8 -19v-66q0 -11 -8 -19t-19 -8h-264v-373q0 -11 -8 -19t-19 -8h-76q-11 0 -19 8t-8 19v466q0 11 8 19t19 8h367q11 0 19 -8zM332 741.5q7 3.5 19 3.5h95q9 0 14 -5.5t5 -14.5q0 -7 -5 -12l-123 -101q-11 -9 -19.5 -13t-22.5 -4h-55q-16 0 -16 16q0 6 5 13
l85 102q11 12 18 15.5z" />
    <glyph glyph-name="uni0491" unicode="&#x491;" horiz-adv-x="510" 
d="M369 603q0 11 8 19t19 8h73q11 0 19 -8t8 -19v-173q0 -11 -8 -19t-19 -8h-273v-376q0 -11 -8 -19t-19 -8h-73q-11 0 -19 8t-8 19v466q0 11 8 19t19 8h273v83z" />
    <glyph glyph-name="uni0434" unicode="&#x434;" horiz-adv-x="595" 
d="M129 512q8 8 19 8h323q11 0 19 -8t8 -19v-373h25q11 0 19 -8t8 -19v-176q0 -11 -8 -19t-19 -8h-73q-12 0 -21 8t-9 19v83h-267v-83q0 -11 -8 -19t-19 -8h-76q-11 0 -19 8t-8 19v176q0 11 8 19t19 8h26q45 0 45 85v288q0 11 8 19zM368 400h-117v-208q0 -43 -15 -72h132
v280z" />
    <glyph glyph-name="uni0435" unicode="&#x435;" horiz-adv-x="574" 
d="M417 495.5q56 -34.5 86.5 -92.5t30.5 -127v-45q0 -11 -8 -19t-19 -8h-334q0 -43 34 -68.5t81 -25.5q55 0 85 23q11 8 18 11t19 3h80q11 0 19 -7.5t8 -17.5q0 -21 -27.5 -53t-79.5 -55.5t-122 -23.5q-74 0 -129.5 34t-85.5 95t-30 141q0 75 30 136.5t86 97.5t129 36
t129 -34.5zM399 318q-11 92 -111 92q-52 0 -81.5 -28t-33.5 -64h226z" />
    <glyph glyph-name="uni0450" unicode="&#x450;" horiz-adv-x="574" 
d="M345 611q0 -16 -16 -16h-55q-14 0 -22.5 4t-19.5 13l-123 101q-5 5 -5 12q0 9 5 14.5t14 5.5h95q12 0 19 -3.5t18 -15.5l85 -102q5 -7 5 -13zM417 495.5q56 -34.5 86.5 -92.5t30.5 -127v-45q0 -11 -8 -19t-19 -8h-334q0 -43 34 -68.5t81 -25.5q55 0 85 23q11 8 18 11
t19 3h80q11 0 19 -7.5t8 -17.5q0 -21 -27.5 -53t-79.5 -55.5t-122 -23.5q-74 0 -129.5 34t-85.5 95t-30 141q0 75 30 136.5t86 97.5t129 36t129 -34.5zM399 318q-11 92 -111 92q-52 0 -81.5 -28t-33.5 -64h226z" />
    <glyph glyph-name="uni0451" unicode="&#x451;" horiz-adv-x="574" 
d="M245 729q8 -8 8 -19v-88q0 -11 -8 -19t-19 -8h-83q-11 0 -19 8t-8 19v88q0 11 8 19t19 8h83q11 0 19 -8zM452 729q8 -8 8 -19v-88q0 -11 -8 -19t-19 -8h-83q-11 0 -19 8t-8 19v88q0 11 8 19t19 8h83q11 0 19 -8zM417 495.5q56 -34.5 86.5 -92.5t30.5 -127v-45
q0 -11 -8 -19t-19 -8h-334q0 -43 34 -68.5t81 -25.5q55 0 85 23q11 8 18 11t19 3h80q11 0 19 -7.5t8 -17.5q0 -21 -27.5 -53t-79.5 -55.5t-122 -23.5q-74 0 -129.5 34t-85.5 95t-30 141q0 75 30 136.5t86 97.5t129 36t129 -34.5zM399 318q-11 92 -111 92q-52 0 -81.5 -28
t-33.5 -64h226z" />
    <glyph glyph-name="uni0436" unicode="&#x436;" horiz-adv-x="712" 
d="M173 19q-9 -11 -19.5 -15t-24.5 -4h-77q-11 0 -18.5 8t-7.5 20q0 8 4 14l180 223l-172 213q-4 6 -4 14q0 12 7.5 20t18.5 8h77q14 0 24.5 -4t19.5 -15l110 -137v129q0 11 8 19t19 8h76q11 0 19 -8t8 -19v-129l110 137q9 11 19.5 15t24.5 4h77q11 0 18.5 -8t7.5 -20
q0 -8 -4 -14l-172 -213l180 -223q4 -6 4 -14q0 -12 -7.5 -20t-18.5 -8h-77q-14 0 -24.5 4t-19.5 15l-118 146v-138q0 -11 -8 -19t-19 -8h-76q-11 0 -19 8t-8 19v138z" />
    <glyph glyph-name="uni0437" unicode="&#x437;" horiz-adv-x="538" 
d="M138 157q7 0 11.5 -4t11 -12t10.5 -11q13 -11 32 -15.5t60 -4.5q99 0 99 45q0 19 -22 32.5t-67 13.5h-55q-11 0 -19 8t-8 19v66q0 11 8 19t19 8h45q89 0 89 45q0 19 -23 31.5t-66 12.5q-32 0 -51 -6.5t-32 -18.5q-4 -4 -9.5 -11.5t-11 -11.5t-12.5 -4h-76q-11 0 -19.5 8
t-7.5 19q2 31 27 65t74 57t118 23q108 0 163.5 -46t55.5 -119q0 -60 -37 -101q23 -22 35 -50t12 -59q0 -72 -58.5 -118.5t-170.5 -46.5q-74 0 -125 22t-76 54.5t-27 63.5q-1 11 7.5 19t19.5 8h76z" />
    <glyph glyph-name="uni0438" unicode="&#x438;" horiz-adv-x="637" 
d="M446 8q-8 8 -8 19v280l-243 -296q-9 -11 -23 -11h-76q-11 0 -19 8t-8 19v466q0 11 8 19t19 8h76q11 0 19 -8t8 -19v-282l243 298q9 11 23 11h76q11 0 19 -8t8 -19v-466q0 -11 -8 -19t-19 -8h-76q-11 0 -19 8z" />
    <glyph glyph-name="uni0439" unicode="&#x439;" horiz-adv-x="637" 
d="M446 8q-8 8 -8 19v280l-243 -296q-9 -11 -23 -11h-76q-11 0 -19 8t-8 19v466q0 11 8 19t19 8h76q11 0 19 -8t8 -19v-282l243 298q9 11 23 11h76q11 0 19 -8t8 -19v-466q0 -11 -8 -19t-19 -8h-76q-11 0 -19 8zM179 739.5q5 5.5 14 5.5h57q9 0 14 -5.5t5 -13.5
q0 -50 49 -50t49 50q0 8 5 13.5t14 5.5h57q9 0 14 -5.5t5 -13.5q0 -56 -33.5 -96t-110.5 -40t-110.5 40t-33.5 96q0 8 5 13.5z" />
    <glyph glyph-name="uni045D" unicode="&#x45d;" horiz-adv-x="637" 
d="M446 8q-8 8 -8 19v280l-243 -296q-9 -11 -23 -11h-76q-11 0 -19 8t-8 19v466q0 11 8 19t19 8h76q11 0 19 -8t8 -19v-282l243 298q9 11 23 11h76q11 0 19 -8t8 -19v-466q0 -11 -8 -19t-19 -8h-76q-11 0 -19 8zM373 611q0 -16 -16 -16h-55q-14 0 -22.5 4t-19.5 13l-123 101
q-5 5 -5 12q0 9 5 14.5t14 5.5h95q12 0 19 -3.5t18 -15.5l85 -102q5 -7 5 -13z" />
    <glyph glyph-name="uni043A" unicode="&#x43a;" horiz-adv-x="572" 
d="M199 27q0 -11 -8 -19t-19 -8h-76q-11 0 -19 8t-8 19v466q0 11 8 19t19 8h76q11 0 19 -8t8 -19v-158l184 168q11 8 19 12.5t20 4.5h95q10 0 17 -7t7 -17q0 -11 -11 -20l-233 -211l255 -222q10 -10 10 -19q0 -10 -7 -17t-17 -7h-106q-21 0 -41 17l-192 167v-157z" />
    <glyph glyph-name="uni045C" unicode="&#x45c;" horiz-adv-x="572" 
d="M199 27q0 -11 -8 -19t-19 -8h-76q-11 0 -19 8t-8 19v466q0 11 8 19t19 8h76q11 0 19 -8t8 -19v-158l184 168q11 8 19 12.5t20 4.5h95q10 0 17 -7t7 -17q0 -11 -11 -20l-233 -211l255 -222q10 -10 10 -19q0 -10 -7 -17t-17 -7h-106q-21 0 -41 17l-192 167v-157zM339 741.5
q7 3.5 19 3.5h95q9 0 14 -5.5t5 -14.5q0 -7 -5 -12l-123 -101q-11 -9 -19.5 -13t-22.5 -4h-55q-16 0 -16 16q0 6 5 13l85 102q11 12 18 15.5z" />
    <glyph glyph-name="uni043B" unicode="&#x43b;" horiz-adv-x="616" 
d="M256 184q0 -92 -47 -143t-141 -51h-23q-11 0 -19 8t-8 19v66q0 11 8 19t19 8h18q37 0 50 18.5t13 60.5v304q0 11 8 19t19 8h367q11 0 19 -8t8 -19v-466q0 -11 -8 -19t-19 -8h-76q-11 0 -19 8t-8 19v373h-161v-216z" />
    <glyph glyph-name="uni043C" unicode="&#x43c;" horiz-adv-x="696" 
d="M490 500q10 20 39 20h71q11 0 19 -8t8 -19v-466q0 -11 -8 -19t-19 -8h-76q-11 0 -19 8t-8 19v251l-95 -168q-14 -25 -35 -25h-38q-21 0 -35 25l-95 168v-251q0 -11 -8 -19t-19 -8h-76q-11 0 -19 8t-8 19v466q0 11 8 19t19 8h71q29 0 39 -20l142 -257z" />
    <glyph glyph-name="uni043D" unicode="&#x43d;" horiz-adv-x="632" 
d="M555 512q8 -8 8 -19v-466q0 -11 -8 -19t-19 -8h-76q-11 0 -19 8t-8 19v175h-234v-175q0 -11 -8 -19t-19 -8h-76q-11 0 -19 7.5t-8 19.5v466q0 11 8 19t19 8h76q11 0 19 -8t8 -19v-171h234v171q0 11 8 19t19 8h76q11 0 19 -8z" />
    <glyph glyph-name="uni043E" unicode="&#x43e;" horiz-adv-x="595" 
d="M551 259q0 -26 -2 -50q-5 -61 -37 -111t-87.5 -79t-126.5 -29t-126.5 29t-87.5 79t-37 111q-1 12 -1 50q0 39 1 51q5 62 37 112t87.5 79t126.5 29t126.5 -29t87.5 -79t37 -112q2 -24 2 -51zM216.5 386q-33.5 -24 -39.5 -81q-1 -10 -1 -45t1 -45q6 -57 39.5 -81t81.5 -24
t81.5 24t39.5 81q2 20 2 45t-2 45q-6 57 -39.5 81t-81.5 24t-81.5 -24z" />
    <glyph glyph-name="uni043F" unicode="&#x43f;" horiz-adv-x="632" 
d="M555 512q8 -8 8 -19v-466q0 -11 -8 -19t-19 -8h-76q-11 0 -19 8t-8 19v373h-234v-373q0 -11 -8 -19t-19 -8h-76q-11 0 -19 8t-8 19v466q0 11 8 19t19 8h440q11 0 19 -8z" />
    <glyph glyph-name="uni0440" unicode="&#x440;" horiz-adv-x="619" 
d="M199 -163q0 -11 -8 -19t-19 -8h-76q-11 0 -19 8t-8 19v656q0 11 8 19t19 8h76q11 0 19 -8t8 -19v-23q21 24 58 42t93 18q65 0 114.5 -32.5t77.5 -86t31 -116.5q1 -10 1 -35t-1 -35q-3 -63 -31 -116.5t-77.5 -86t-114.5 -32.5q-55 0 -92 18t-59 42v-213zM411 373
q-34 37 -91 37q-50 0 -83 -29.5t-38 -82.5q-1 -10 -1 -38t1 -38q5 -51 38.5 -81.5t82.5 -30.5q51 0 84 30t39 92q2 20 2 28q0 76 -34 113z" />
    <glyph glyph-name="uni0441" unicode="&#x441;" horiz-adv-x="577" 
d="M213.5 138.5q33.5 -28.5 79.5 -28.5q45 0 67 13t41 41q8 13 15.5 20t17.5 7h76q11 0 19.5 -8t7.5 -19q-2 -33 -29 -74t-81.5 -70.5t-133.5 -29.5q-71 0 -125.5 31t-86.5 83.5t-37 114.5q-1 12 -1 40q0 29 1 41q5 62 36.5 114.5t86.5 84t126 31.5q79 0 133.5 -29.5
t81.5 -70.5t29 -74q1 -11 -7.5 -19t-19.5 -8h-76q-10 0 -17.5 7t-15.5 20q-19 28 -41 41t-67 13q-46 0 -79.5 -28.5t-39.5 -86.5q-1 -10 -1 -35t1 -35q6 -58 39.5 -86.5z" />
    <glyph glyph-name="uni0442" unicode="&#x442;" horiz-adv-x="544" 
d="M520 512q8 -8 8 -19v-66q0 -11 -8 -19t-19 -8h-164v-373q0 -11 -8 -19t-19 -8h-76q-11 0 -19 8t-8 19v373h-164q-11 0 -19 8t-8 19v66q0 11 8 19t19 8h458q11 0 19 -8z" />
    <glyph glyph-name="uni0443" unicode="&#x443;" horiz-adv-x="597" 
d="M231 18l-202 468q-1 3 -1 7q0 11 8 19t19 8h75q11 0 20.5 -7.5t12.5 -16.5l137 -319l137 319q3 9 12.5 16.5t20.5 7.5h75q11 0 19 -8t8 -19q0 -4 -1 -7l-214 -500q-27 -61 -51.5 -98.5t-59 -57.5t-84.5 -20h-53q-11 0 -19 8t-8 19v66q0 11 8 19t19 8h36q51 0 74 56z" />
    <glyph glyph-name="uni045E" unicode="&#x45e;" horiz-adv-x="597" 
d="M231 18l-202 468q-1 3 -1 7q0 11 8 19t19 8h75q11 0 20.5 -7.5t12.5 -16.5l137 -319l137 319q3 9 12.5 16.5t20.5 7.5h75q11 0 19 -8t8 -19q0 -4 -1 -7l-214 -500q-27 -61 -51.5 -98.5t-59 -57.5t-84.5 -20h-53q-11 0 -19 8t-8 19v66q0 11 8 19t19 8h36q51 0 74 56z
M161 739.5q5 5.5 14 5.5h57q9 0 14 -5.5t5 -13.5q0 -50 49 -50t49 50q0 8 5 13.5t14 5.5h57q9 0 14 -5.5t5 -13.5q0 -56 -33.5 -96t-110.5 -40t-110.5 40t-33.5 96q0 8 5 13.5z" />
    <glyph glyph-name="uni0444" unicode="&#x444;" horiz-adv-x="910" 
d="M45 260l1 35q3 64 27.5 117.5t70.5 85.5t110 32q83 0 136 -60v213q0 11 8 19t19 8h76q11 0 19 -8t8 -19v-213q53 60 136 60q64 0 110 -32t70.5 -85.5t27.5 -117.5q1 -10 1 -35t-1 -35q-3 -64 -27.5 -117.5t-70.5 -85.5t-110 -32q-81 0 -136 60v-213q0 -11 -8 -19t-19 -8
h-76q-11 0 -19 8t-8 19v213q-55 -60 -136 -60q-64 0 -110 32t-70.5 85.5t-27.5 117.5zM357.5 139.5q27.5 29.5 32.5 82.5q2 20 2 38t-2 38q-5 54 -32.5 83t-73.5 29q-48 0 -75 -29.5t-33 -92.5q-1 -10 -1 -28q0 -150 109 -150q46 0 73.5 29.5zM626 410q-46 0 -73.5 -29
t-32.5 -83q-1 -10 -1 -38t1 -38q5 -53 32.5 -82.5t73.5 -29.5q48 0 75 29.5t33 92.5q2 20 2 28q0 150 -110 150z" />
    <glyph glyph-name="uni0445" unicode="&#x445;" horiz-adv-x="585" 
d="M173 19q-9 -11 -19.5 -15t-24.5 -4h-77q-11 0 -18.5 8t-7.5 20q0 8 4 14l180 223l-172 213q-4 6 -4 14q0 12 7.5 20t18.5 8h77q14 0 24.5 -4t19.5 -15l113 -140l112 140q9 11 19.5 15t24.5 4h77q11 0 18.5 -8t7.5 -20q0 -8 -4 -14l-174 -217l178 -219q4 -6 4 -14
q0 -12 -7.5 -20t-18.5 -8h-77q-14 0 -24.5 4t-19.5 15l-119 146z" />
    <glyph glyph-name="uni0447" unicode="&#x447;" horiz-adv-x="596" 
d="M190 310.5q27 -27.5 87 -27.5h120v210q0 11 8 19t19 8h76q11 0 19 -8t8 -19v-466q0 -11 -8 -19t-19 -8h-76q-11 0 -19 8t-8 19v136h-134q-109 0 -169.5 60.5t-60.5 169.5v100q0 11 8 19t19 8h76q11 0 19 -8t8 -19v-95q0 -60 27 -87.5z" />
    <glyph glyph-name="uni0446" unicode="&#x446;" horiz-adv-x="649" 
d="M413 493q0 11 8 19t19 8h76q11 0 19 -8t8 -19v-373h39q11 0 19 -8t8 -19v-176q0 -11 -8 -19t-19 -8h-76q-11 0 -19 8t-8 19v83h-383q-11 0 -19 8t-8 19v466q0 11 8 19t19 8h76q11 0 19 -8t8 -19v-373h214v373z" />
    <glyph glyph-name="uni0448" unicode="&#x448;" horiz-adv-x="798" 
d="M191 512q8 -8 8 -19v-373h135v373q0 11 8 19t19 8h76q11 0 19 -8t8 -19v-373h135v373q0 11 8 19t19 8h76q11 0 19 -8t8 -19v-466q0 -11 -8 -19t-19 -8h-606q-11 0 -19 8t-8 19v466q0 11 8 19t19 8h76q11 0 19 -8z" />
    <glyph glyph-name="uni0449" unicode="&#x449;" horiz-adv-x="834" 
d="M191 512q8 -8 8 -19v-373h135v373q0 11 8 19t19 8h76q11 0 19 -8t8 -19v-373h135v373q0 11 8 19t19 8h76q11 0 19 -8t8 -19v-376h39q11 0 19 -8t8 -19v-173q0 -11 -8 -19t-19 -8h-76q-11 0 -19 8t-8 19v83h-569q-11 0 -19 8t-8 19v466q0 11 8 19t19 8h76q11 0 19 -8z" />
    <glyph glyph-name="uni045F" unicode="&#x45f;" horiz-adv-x="602" 
d="M366 -83q0 -11 -8 -19t-19 -8h-76q-11 0 -19 8t-8 19v83h-140q-11 0 -19 8t-8 19v466q0 11 8 19t19 8h76q11 0 19 -8t8 -19v-373h204v373q0 11 8 19t19 8h76q11 0 19 -8t8 -19v-466q0 -11 -8 -19t-19 -8h-140v-83z" />
    <glyph glyph-name="uni044C" unicode="&#x44c;" horiz-adv-x="554" 
d="M96 0q-11 0 -19 8t-8 19v466q0 11 8 19t19 8h76q11 0 19 -8t8 -19v-89h103q65 0 115.5 -25.5t78.5 -71t28 -105.5t-28 -105.5t-78.5 -71t-115.5 -25.5h-206zM285 120q55 0 83.5 17.5t28.5 64.5t-28.5 64.5t-83.5 17.5h-86v-164h86z" />
    <glyph glyph-name="uni044A" unicode="&#x44a;" horiz-adv-x="630" 
d="M172 0q-11 0 -19 8t-8 19v373h-99q-11 0 -19 8t-8 19v66q0 11 8 19t19 8h202q11 0 19 -8t8 -19v-89h103q65 0 115.5 -25.5t78.5 -71t28 -105.5t-28 -105.5t-78.5 -71t-115.5 -25.5h-206zM361 120q55 0 83.5 17.5t28.5 64.5t-28.5 64.5t-83.5 17.5h-86v-164h86z" />
    <glyph glyph-name="uni044B" unicode="&#x44b;" horiz-adv-x="773" 
d="M96 0q-11 0 -19 8t-8 19v466q0 11 8 19t19 8h76q11 0 19 -8t8 -19v-89h103q65 0 115.5 -25.5t78.5 -71t28 -105.5t-28 -105.5t-78.5 -71t-115.5 -25.5h-206zM677 520q11 0 19 -8t8 -19v-466q0 -11 -8 -19t-19 -8h-76q-11 0 -19 8t-8 19v466q0 11 8 19t19 8h76zM285 120
q55 0 83.5 17.5t28.5 64.5t-28.5 64.5t-83.5 17.5h-86v-164h86z" />
    <glyph glyph-name="uni0459" unicode="&#x459;" horiz-adv-x="881" 
d="M423 0q-11 0 -19 8t-8 19v373h-140v-216q0 -92 -47 -143t-141 -51h-23q-11 0 -19 8t-8 19v66q0 11 8 19t19 8h18q37 0 50 18.5t13 60.5v304q0 11 8 19t19 8h346q11 0 19 -8t8 -19v-89h103q65 0 115.5 -25.5t78.5 -71t28 -105.5t-28 -105.5t-78.5 -71t-115.5 -25.5h-206z
M612 120q55 0 83.5 17.5t28.5 64.5t-28.5 64.5t-83.5 17.5h-86v-164h86z" />
    <glyph glyph-name="uni045A" unicode="&#x45a;" horiz-adv-x="864" 
d="M406 0q-11 0 -19 8t-8 19v175h-180v-175q0 -11 -8 -19t-19 -8h-76q-11 0 -19 7.5t-8 19.5v466q0 11 8 19t19 8h76q11 0 19 -8t8 -19v-171h180v171q0 11 8 19t19 8h76q11 0 19 -8t8 -19v-89h103q65 0 115.5 -25.5t78.5 -71t28 -105.5t-28 -105.5t-78.5 -71t-115.5 -25.5
h-206zM595 120q55 0 83.5 17.5t28.5 64.5t-28.5 64.5t-83.5 17.5h-86v-164h86z" />
    <glyph glyph-name="uni0455" unicode="&#x455;" horiz-adv-x="520" 
d="M82.5 266q-33.5 39 -33.5 103q0 41 25 78t72 60t109 23t109.5 -18t74 -48t28.5 -63q1 -11 -7.5 -19t-19.5 -8h-77q-12 0 -19 3.5t-15 10.5q-12 10 -27.5 16t-46.5 6q-33 0 -54.5 -10t-21.5 -31q0 -15 10.5 -23.5t36.5 -15t94 -21.5q86 -18 124 -58t38 -102
q0 -41 -27 -77.5t-77.5 -59t-117.5 -22.5t-116.5 20.5t-76 52.5t-28.5 66q-1 11 7.5 19t19.5 8h77q11 0 18 -4t15 -12q14 -14 31 -22t53 -8t64 9.5t28 29.5q0 13 -10 20.5t-31 13.5t-72 17l-39 8q-84 19 -117.5 58z" />
    <glyph glyph-name="uni0454" unicode="&#x454;" horiz-adv-x="577" 
d="M416.5 184q7.5 7 17.5 7h76q11 0 19.5 -8t7.5 -19q-2 -33 -29 -74t-81.5 -70.5t-133.5 -29.5q-71 0 -125.5 31t-86.5 83.5t-37 114.5q-1 12 -1 40q0 29 1 41q5 62 36.5 114.5t86.5 84t126 31.5q79 0 133.5 -29.5t81.5 -70.5t29 -74q1 -11 -7.5 -19t-19.5 -8h-76
q-10 0 -17.5 7t-15.5 20q-19 28 -41 41t-67 13q-39 0 -71 -22.5t-43 -67.5h120q11 0 19 -8t8 -19v-66q0 -11 -8 -19t-19 -8h-120q11 -46 42.5 -68t71.5 -22q45 0 67 13t41 41q8 13 15.5 20z" />
    <glyph glyph-name="uni044D" unicode="&#x44d;" horiz-adv-x="577" 
d="M277 200q-11 0 -19 8t-8 19v66q0 11 8 19t19 8h120q-11 45 -43 67.5t-71 22.5q-45 0 -67 -13t-41 -41q-8 -13 -15.5 -20t-17.5 -7h-76q-11 0 -19.5 8t-7.5 19q2 33 29 74t81.5 70.5t133.5 29.5q71 0 126 -31.5t86.5 -84t36.5 -114.5q2 -24 2 -41q0 -16 -2 -40
q-5 -62 -37 -114.5t-86.5 -83.5t-125.5 -31q-79 0 -133.5 29.5t-81.5 70.5t-29 74q-1 11 7.5 19t19.5 8h76q10 0 17.5 -7t15.5 -20q19 -28 41 -41t67 -13q40 0 71.5 22t42.5 68h-120z" />
    <glyph glyph-name="uni0456" unicode="&#x456;" horiz-adv-x="268" 
d="M196 702q8 -8 8 -19v-78q0 -11 -8 -19t-19 -8h-86q-11 0 -19 8t-8 19v78q0 11 8 19t19 8h86q11 0 19 -8zM191 8q-8 -8 -19 -8h-76q-11 0 -19 8t-8 19v466q0 11 8 19t19 8h76q11 0 19 -8t8 -19v-466q0 -11 -8 -19z" />
    <glyph glyph-name="uni0457" unicode="&#x457;" horiz-adv-x="268" 
d="M191 8q-8 -8 -19 -8h-76q-11 0 -19 8t-8 19v466q0 11 8 19t19 8h76q11 0 19 -8t8 -19v-466q0 -11 -8 -19zM91 729q8 -8 8 -19v-88q0 -11 -8 -19t-19 -8h-83q-11 0 -19 8t-8 19v88q0 11 8 19t19 8h83q11 0 19 -8zM298 729q8 -8 8 -19v-88q0 -11 -8 -19t-19 -8h-83
q-11 0 -19 8t-8 19v88q0 11 8 19t19 8h83q11 0 19 -8z" />
    <glyph glyph-name="uni0458" unicode="&#x458;" horiz-adv-x="278" 
d="M206 702q8 -8 8 -19v-78q0 -11 -8 -19t-19 -8h-86q-11 0 -19 8t-8 19v78q0 11 8 19t19 8h86q11 0 19 -8zM87 512q8 8 19 8h76q11 0 19 -8t8 -19v-503q0 -89 -50.5 -134.5t-144.5 -45.5h-25q-11 0 -19 8t-8 19v66q0 11 8 19t19 8h15q43 0 59 16t16 49v498q0 11 8 19z" />
    <glyph glyph-name="uni045B" unicode="&#x45b;" horiz-adv-x="621" 
d="M549 8q-8 -8 -19 -8h-76q-11 0 -19 8t-8 19v254q0 62 -29 97t-85 35q-52 0 -83 -36t-31 -96v-254q0 -11 -8 -19t-19 -8h-76q-11 0 -19 8t-8 19v527h-53q-11 0 -19 8t-8 19v36q0 11 8 19t19 8h53v39q0 11 8 19t19 8h76q11 0 19 -8t8 -19v-39h53q11 0 19 -8t8 -19v-36
q0 -11 -8 -19t-19 -8h-53v-84q60 60 144 60q113 0 163.5 -65t50.5 -169v-269q0 -11 -8 -19z" />
    <glyph glyph-name="uni044E" unicode="&#x44e;" horiz-adv-x="886" 
d="M842 259q0 -26 -2 -50q-5 -61 -37 -111t-87.5 -79t-126.5 -29q-70 0 -124.5 28t-86.5 76t-39 108h-140v-175q0 -11 -8 -19t-19 -8h-76q-11 0 -19 8t-8 19v466q0 11 8 19t19 8h76q11 0 19 -8t8 -19v-171h140q8 59 40.5 106.5t86.5 74.5t123 27q71 0 126.5 -29t87.5 -79
t37 -112q2 -24 2 -51zM507.5 386q-33.5 -24 -39.5 -81q-1 -10 -1 -45t1 -45q6 -57 39.5 -81t81.5 -24t81.5 24t39.5 81q2 20 2 45t-2 45q-6 57 -39.5 81t-81.5 24t-81.5 -24z" />
    <glyph glyph-name="uni044F" unicode="&#x44f;" horiz-adv-x="590" 
d="M494 520q11 0 19 -8t8 -19v-466q0 -11 -8 -19t-19 -8h-76q-11 0 -19 8t-8 19v121h-113l-91 -129q-7 -8 -14 -13.5t-18 -5.5h-90q-10 0 -17 7t-7 16q0 8 4 14l99 137q-44 23 -68.5 64t-24.5 97q0 88 59 136.5t153 48.5h231zM266 400q-46 0 -65.5 -15.5t-19.5 -50.5
t19.5 -50.5t65.5 -15.5h125v132h-125z" />
    <glyph glyph-name="uni0452" unicode="&#x452;" horiz-adv-x="621" 
d="M506.5 -179.5q-50.5 -45.5 -144.5 -45.5h-25q-11 0 -19 8t-8 19v66q0 11 8 19t19 8h15q43 0 59 16t16 49v321q0 62 -29 97t-85 35q-52 0 -83 -36t-31 -96v-254q0 -11 -8 -19t-19 -8h-76q-11 0 -19 8t-8 19v527h-53q-11 0 -19 8t-8 19v36q0 11 8 19t19 8h53v39q0 11 8 19
t19 8h76q11 0 19 -8t8 -19v-39h53q11 0 19 -8t8 -19v-36q0 -11 -8 -19t-19 -8h-53v-84q60 60 144 60q113 0 163.5 -65t50.5 -169v-341q0 -89 -50.5 -134.5z" />
    <glyph glyph-name="uni05F2" unicode="&#x5f2;" horiz-adv-x="518" 
d="M329 241q-7 7 -7 17v289q0 11 7 17.5t17 6.5h85q10 0 17 -7t7 -17v-289q0 -10 -7 -17t-17 -7h-85q-10 0 -17 7zM70 241q-7 7 -7 17v289q0 11 7 17.5t17 6.5h85q10 0 17 -7t7 -17v-289q0 -10 -7 -17t-17 -7h-85q-10 0 -17 7z" />
    <glyph glyph-name="uni05D0" unicode="&#x5d0;" horiz-adv-x="612" 
d="M562 21q0 -9 -6 -15t-14 -6h-84q-12 0 -18.5 4.5t-13.5 13.5l-202 287q-35 -28 -46.5 -64.5t-11.5 -79.5v-136q0 -11 -6.5 -18t-17.5 -7h-68q-10 0 -17 7t-7 18v137q0 80 23 134t88 99l-98 139q-6 8 -6 16q0 9 6 15t15 6h81q18 0 32 -19l185 -261q28 17 41 36.5t16 39
t3 49.5v130q0 11 7 18t17 7h72q11 0 18 -7t7 -18v-135q0 -66 -24.5 -116t-93.5 -93l117 -165q6 -7 6 -16z" />
    <glyph glyph-name="uni05D1" unicode="&#x5d1;" horiz-adv-x="560" 
d="M54 7q-7 7 -7 17v59q0 11 7 17.5t17 6.5h269v214q0 143 -142 143h-117q-10 0 -17 7t-7 17v59q0 11 7 17.5t17 6.5h122q134 0 202 -60.5t68 -187.5v-216h36q11 0 17.5 -6.5t6.5 -17.5v-59q0 -10 -6.5 -17t-17.5 -7h-438q-10 0 -17 7z" />
    <glyph glyph-name="uni05D2" unicode="&#x5d2;" horiz-adv-x="465" 
d="M427 7q-7 -7 -18 -7h-85q-10 0 -16 6.5t-8 17.5l-19 94q-28 -42 -70 -68q-38 -24 -70.5 -37.5t-68.5 -20.5l-7 -1q-17 0 -17 16v78q0 17 21 25q5 2 42.5 14t64.5 27q23 14 45.5 35.5t37.5 45.5l-19 95q-15 75 -37 106t-71 31h-36q-10 0 -17 7t-7 17v63q0 11 7 17.5
t17 6.5h38q74 0 120.5 -25.5t73.5 -77.5t44 -139l61 -309q1 -10 -6 -17z" />
    <glyph glyph-name="uni05D3" unicode="&#x5d3;" horiz-adv-x="557" 
d="M512 564q7 -7 7 -17v-59q0 -10 -7 -17t-17 -7h-54q-13 -17 -20 -49t-7 -71v-322q0 -9 -8 -15.5t-18 -6.5h-80q-10 0 -16 6t-6 16v331q0 80 23 111h-252q-10 0 -17 7t-7 17v59q0 11 7 17.5t17 6.5h438q10 0 17 -7z" />
    <glyph glyph-name="uni05D4" unicode="&#x5d4;" horiz-adv-x="633" 
d="M449 7q-7 7 -7 17v298q0 142 -142 142h-207q-10 0 -17 7t-7 17v59q0 11 7 17.5t17 6.5h212q266 0 266 -248v-299q0 -10 -6.5 -17t-17.5 -7h-81q-10 0 -17 7zM76 7q-7 7 -7 17v314q0 11 7 17.5t17 6.5h80q11 0 18 -7t7 -17v-314q0 -10 -7 -17t-18 -7h-80q-10 0 -17 7z" />
    <glyph glyph-name="uni05D5" unicode="&#x5d5;" horiz-adv-x="270" 
d="M76 7q-7 7 -7 17v523q0 11 7 17.5t17 6.5h85q10 0 17 -7t7 -17v-523q0 -10 -7 -17t-17 -7h-85q-10 0 -17 7z" />
    <glyph glyph-name="uni05D6" unicode="&#x5d6;" horiz-adv-x="406" 
d="M353.5 564.5q6.5 -6.5 6.5 -17.5v-59q0 -10 -7 -17t-17 -7h-53q-13 -17 -20 -49t-7 -71v-322q0 -9 -8 -15.5t-18 -6.5h-80q-10 0 -16 6t-6 16v331q0 80 23 111h-82q-10 0 -17 7t-7 17v59q0 11 7 17.5t17 6.5h267q11 0 17.5 -6.5z" />
    <glyph glyph-name="uni05D7" unicode="&#x5d7;" horiz-adv-x="636" 
d="M76 7q-7 7 -7 17v523q0 11 7 17.5t17 6.5h215q135 0 200.5 -60t65.5 -188v-299q0 -10 -7 -17t-18 -7h-80q-10 0 -17 7t-7 17v298q0 142 -142 142h-105v-440q0 -10 -7 -17t-18 -7h-80q-10 0 -17 7z" />
    <glyph glyph-name="uni05D8" unicode="&#x5d8;" horiz-adv-x="641" 
d="M128 54q-65 64 -65 183v310q0 11 7 17.5t17 6.5h72q11 0 17.5 -6.5t6.5 -17.5v-305q0 -69 37 -105t108 -36q69 0 103 33.5t35 101.5q1 10 0.5 32t-0.5 34v23q-1 69 -26.5 104.5t-71.5 35.5q-15 0 -34 -5t-32 -13q-4 -3 -10 -3q-8 0 -14 5.5t-6 14.5v55q0 12 3 20t13 13
q18 11 41 17t59 6q104 0 153 -57t51 -175q1 -10 1 -56t-1 -56q-5 -119 -67.5 -180t-196.5 -61q-135 0 -200 64z" />
    <glyph glyph-name="uni05D9" unicode="&#x5d9;" horiz-adv-x="259" 
d="M70 241q-7 7 -7 17v289q0 11 7 17.5t17 6.5h85q10 0 17 -7t7 -17v-289q0 -10 -7 -17t-17 -7h-85q-10 0 -17 7z" />
    <glyph glyph-name="uni05DA" unicode="&#x5da;" horiz-adv-x="559" 
d="M226 464h-153q-10 0 -17 7t-7 17v59q0 11 7 17.5t17 6.5h158q134 0 200 -58t66 -186v-427q0 -11 -6.5 -17.5t-17.5 -6.5h-81q-10 0 -17 7t-7 17v422q0 142 -142 142z" />
    <glyph glyph-name="uni05DB" unicode="&#x5db;" horiz-adv-x="552" 
d="M73 7q-7 7 -7 17v63q0 11 7 17.5t17 6.5h144q72 0 107.5 36.5t39.5 106.5q1 13 1 32t-1 31q-6 143 -147 143h-144q-10 0 -17 7t-7 17v63q0 11 7 17.5t17 6.5h149q134 0 197.5 -65t68.5 -187q1 -13 1 -33q0 -21 -1 -34q-5 -122 -68.5 -187t-197.5 -65h-149q-10 0 -17 7z
" />
    <glyph glyph-name="uni05DC" unicode="&#x5dc;" horiz-adv-x="530" 
d="M427 510q56 -61 56 -195q0 -127 -69 -204t-176 -109l-41 -13q-10 -3 -18 4t-8 18v73q0 9 6 16.5t17 12.5l36 14q58 23 89.5 65t31.5 122q0 55 -12.5 86.5t-42 45.5t-82.5 14h-27h-3l-113 1q-11 0 -17.5 6.5t-6.5 16.5v202q0 11 7 17.5t17 6.5h74q11 0 17.5 -6.5
t6.5 -17.5v-115h49h20q133 0 189 -61z" />
    <glyph glyph-name="uni05DD" unicode="&#x5dd;" horiz-adv-x="625" 
d="M76 7q-7 7 -7 17v523q0 11 7 17.5t17 6.5h208q132 0 197 -59t65 -185v-302q0 -10 -7 -17.5t-18 -7.5h-445q-10 0 -17 7zM439 107v215q0 142 -143 142h-110v-357h253z" />
    <glyph glyph-name="uni05DE" unicode="&#x5de;" horiz-adv-x="651" 
d="M526 507.5q62 -63.5 62 -180.5v-303q0 -10 -6.5 -17t-17.5 -7h-265q-10 0 -17 7t-7 17v59q0 11 7 17.5t17 6.5h161v213q0 64 -32 102.5t-81 38.5h-91l-82 -436q-1 -10 -8.5 -17.5t-17.5 -7.5h-78q-11 0 -17.5 7.5t-4.5 17.5l89 435h-59q-10 0 -17 7t-7 17v63q0 11 7 17.5
t17 6.5h286q100 0 162 -63.5z" />
    <glyph glyph-name="uni05DF" unicode="&#x5df;" horiz-adv-x="266" 
d="M76 -117.5q-7 6.5 -7 17.5v647q0 11 7 17.5t17 6.5h80q11 0 18 -7t7 -17v-647q0 -10 -7 -17t-18 -7h-80q-10 0 -17 6.5z" />
    <glyph glyph-name="uni05E0" unicode="&#x5e0;" horiz-adv-x="425" 
d="M377 7q-7 -7 -18 -7h-85h-209q-10 0 -17 7t-7 17v59q0 11 7 17.5t17 6.5h181l-12 225q-3 50 -9.5 78t-24.5 43.5t-54 15.5h-46q-10 0 -17 7t-7 17v58q0 11 7 17.5t17 6.5h48q80 0 126.5 -27t67.5 -79.5t25 -135.5l16 -309q1 -10 -6 -17z" />
    <glyph glyph-name="uni05E1" unicode="&#x5e1;" horiz-adv-x="644" 
d="M127.5 55q-64.5 65 -64.5 185v307q0 11 7 17.5t17 6.5h248q136 0 195.5 -59.5t64.5 -179.5q1 -10 1 -50q0 -41 -1 -51q-4 -120 -67.5 -180.5t-205.5 -60.5q-130 0 -194.5 65zM435.5 132.5q33.5 31.5 35.5 103.5q1 10 1 46q0 35 -1 45q-2 68 -38 102.5t-104 34.5h-147
v-222q0 -70 35.5 -105.5t103.5 -35.5q81 0 114.5 31.5z" />
    <glyph glyph-name="uni05E2" unicode="&#x5e2;" horiz-adv-x="606" 
d="M536.5 564.5q6.5 -6.5 6.5 -17.5v-286q0 -94 -63.5 -161.5t-174.5 -93.5l-237 -62q-10 -3 -19 3t-9 17v59q0 22 19 28l121 35l-124 445q-5 17 -5 20q0 8 6 14t14 6h88q9 0 15 -4.5t8 -10.5l113 -436q68 24 93.5 67t25.5 112v248q0 10 7 17t18 7h80q11 0 17.5 -6.5z" />
    <glyph glyph-name="uni05E3" unicode="&#x5e3;" horiz-adv-x="578" 
d="M166 388q0 -33 7 -53t25 -25l33 -10q8 -3 12.5 -11.5t4.5 -19.5l1 -42q0 -11 -11 -16.5t-23 -3.5l-47 8q-50 9 -80 55t-30 125v152q0 11 7 17.5t17 6.5h177q128 0 191 -66t65 -186l1 -419q0 -10 -7 -17t-17 -7h-77q-10 0 -17 6.5t-7 17.5v417q-2 144 -144 144h-81v-73z
" />
    <glyph glyph-name="uni05E4" unicode="&#x5e4;" horiz-adv-x="577" 
d="M173 402q2 -61 32 -70l33 -9q8 -3 12.5 -11.5t4.5 -19.5l1 -37q0 -13 -12.5 -20t-28.5 -5l-40 8q-50 8 -80 53.5t-30 118.5v137q1 11 7.5 17.5t16.5 6.5h193q121 0 182 -66t65 -186q1 -10 1 -33q0 -24 -1 -34q-4 -120 -65 -186t-182 -66h-181q-10 0 -17 7t-7 17v63
q0 11 7 17.5t17 6.5h176q61 0 96 37.5t38 105.5q1 10 1 32q0 21 -1 31q-2 68 -37.5 105.5t-96.5 37.5h-104v-58z" />
    <glyph glyph-name="uni05E5" unicode="&#x5e5;" horiz-adv-x="524" 
d="M278 -105l-250 639q-4 12 -4 17q0 8 6.5 14t14.5 6h82q11 0 18 -6t12 -18l99 -254q57 10 85.5 48t28.5 102v103q0 11 6.5 18t17.5 7h72q10 0 17 -7t7 -18v-109q0 -101 -51.5 -165.5t-139.5 -88.5l106 -270q5 -13 5 -17q0 -8 -6.5 -14t-14.5 -6h-83q-20 0 -28 19z" />
    <glyph glyph-name="uni05E6" unicode="&#x5e6;" horiz-adv-x="560" 
d="M476 327q-31 -55 -91 -87l91 -128q6 -9 9 -16t3 -16v-56q0 -10 -6.5 -17t-17.5 -7h-383q-10 0 -17 7t-7 17v61q0 11 7 17.5t17 6.5h254l-302 425q-7 8 -7 17q0 8 6.5 14t14.5 6h85q19 0 29 -17l160 -225q66 39 66 146v71q0 11 6.5 18t17.5 7h72q10 0 17 -7t7 -18v-92
q0 -72 -31 -127z" />
    <glyph glyph-name="uni05E7" unicode="&#x5e7;" horiz-adv-x="646" 
d="M291 -7q-8 7 -8 18v73q0 9 6.5 17t17.5 12l35 14q58 23 89.5 65t31.5 122q0 55 -12.5 86.5t-42 45.5t-81.5 14h-234q-10 0 -17 7t-7 17v64q0 10 7 16.5t17 6.5h257q133 0 189 -61t56 -195q0 -127 -69 -204t-176 -109l-41 -13q-10 -3 -18 4zM76 -184.5q-7 6.5 -7 17.5v505
q0 11 7 17.5t17 6.5h78q11 0 17.5 -6.5t6.5 -17.5v-505q0 -11 -6.5 -17.5t-17.5 -6.5h-78q-10 0 -17 6.5z" />
    <glyph glyph-name="uni05E8" unicode="&#x5e8;" horiz-adv-x="546" 
d="M361 7q-7 7 -7 17v298q0 142 -142 142h-141q-10 0 -17 7t-7 17v59q0 11 7 17.5t17 6.5h146q134 0 200 -59t66 -185v-303q0 -10 -7 -17t-17 -7h-81q-10 0 -17 7z" />
    <glyph glyph-name="uni05E9" unicode="&#x5e9;" horiz-adv-x="739" 
d="M675.5 564.5q6.5 -6.5 6.5 -17.5v-270q0 -86 -37.5 -151t-103 -99.5t-148.5 -33.5h-85q-72 0 -128 30.5t-86.5 84.5t-30.5 121v318q0 11 7 17.5t17 6.5h72q11 0 17.5 -6.5t6.5 -17.5l3 -262q71 6 100 45t29 107v109q0 11 7 18t17 7h72q10 0 17 -7t7 -18v-112
q0 -105 -60 -169t-174 -73q19 -44 56.5 -68t86.5 -24h28q57 -1 100.5 22t66.5 65t23 96v264q0 11 7 17.5t17 6.5h72q11 0 17.5 -6.5z" />
    <glyph glyph-name="uni05EA" unicode="&#x5ea;" horiz-adv-x="686" 
d="M557 510.5q66 -60.5 66 -183.5v-303q0 -10 -6.5 -17t-17.5 -7h-80q-10 0 -17 7t-7 17v298q0 142 -143 142h-68q-10 -45 -14 -84t-3 -88l5 -268q0 -10 -6.5 -17t-17.5 -7l-176 1q-10 0 -17 7t-7 17v55q0 11 7 17.5t17 6.5l79 -1v186q-1 51 2.5 90.5t14.5 84.5h-57
q-10 0 -17 7t-7 17v59q0 11 7 17.5t17 6.5h247q133 0 199 -60.5z" />
    <glyph glyph-name="uniFB2A" unicode="&#xfb2a;" horiz-adv-x="739" 
d="M675.5 564.5q6.5 -6.5 6.5 -17.5v-270q0 -86 -37.5 -151t-103 -99.5t-148.5 -33.5h-85q-72 0 -128 30.5t-86.5 84.5t-30.5 121v318q0 11 7 17.5t17 6.5h72q11 0 17.5 -6.5t6.5 -17.5l3 -262q71 6 100 45t29 107v109q0 11 7 18t17 7h72q10 0 17 -7t7 -18v-112
q0 -105 -60 -169t-174 -73q19 -44 56.5 -68t86.5 -24h28q57 -1 100.5 22t66.5 65t23 96v264q0 11 7 17.5t17 6.5h72q11 0 17.5 -6.5zM566 627q-6 6 -6 16v40q0 10 6 16t16 6h40q10 0 16 -6t6 -16v-40q0 -10 -6 -16t-16 -6h-40q-10 0 -16 6z" />
    <glyph glyph-name="uniFB2B" unicode="&#xfb2b;" horiz-adv-x="739" 
d="M675.5 564.5q6.5 -6.5 6.5 -17.5v-270q0 -86 -37.5 -151t-103 -99.5t-148.5 -33.5h-85q-72 0 -128 30.5t-86.5 84.5t-30.5 121v318q0 11 7 17.5t17 6.5h72q11 0 17.5 -6.5t6.5 -17.5l3 -262q71 6 100 45t29 107v109q0 11 7 18t17 7h72q10 0 17 -7t7 -18v-112
q0 -105 -60 -169t-174 -73q19 -44 56.5 -68t86.5 -24h28q57 -1 100.5 22t66.5 65t23 96v264q0 11 7 17.5t17 6.5h72q11 0 17.5 -6.5zM100 627q-6 6 -6 16v40q0 10 6 16t16 6h40q10 0 16 -6t6 -16v-40q0 -10 -6 -16t-16 -6h-40q-10 0 -16 6z" />
    <glyph glyph-name="uniFB2C" unicode="&#xfb2c;" horiz-adv-x="739" 
d="M675.5 564.5q6.5 -6.5 6.5 -17.5v-270q0 -86 -37.5 -151t-103 -99.5t-148.5 -33.5h-85q-72 0 -128 30.5t-86.5 84.5t-30.5 121v318q0 11 7 17.5t17 6.5h72q11 0 17.5 -6.5t6.5 -17.5l3 -262q71 6 100 45t29 107v109q0 11 7 18t17 7h72q10 0 17 -7t7 -18v-112
q0 -105 -60 -169t-174 -73q19 -44 56.5 -68t86.5 -24h28q57 -1 100.5 22t66.5 65t23 96v264q0 11 7 17.5t17 6.5h72q11 0 17.5 -6.5zM447 255q-6 6 -6 16v39q0 10 6 16t16 6h39q10 0 16 -6t6 -16v-39q0 -10 -6 -16t-16 -6h-39q-10 0 -16 6zM566 627q-6 6 -6 16v40q0 10 6 16
t16 6h40q10 0 16 -6t6 -16v-40q0 -10 -6 -16t-16 -6h-40q-10 0 -16 6z" />
    <glyph glyph-name="uniFB2D" unicode="&#xfb2d;" horiz-adv-x="739" 
d="M675.5 564.5q6.5 -6.5 6.5 -17.5v-270q0 -86 -37.5 -151t-103 -99.5t-148.5 -33.5h-85q-72 0 -128 30.5t-86.5 84.5t-30.5 121v318q0 11 7 17.5t17 6.5h72q11 0 17.5 -6.5t6.5 -17.5l3 -262q71 6 100 45t29 107v109q0 11 7 18t17 7h72q10 0 17 -7t7 -18v-112
q0 -105 -60 -169t-174 -73q19 -44 56.5 -68t86.5 -24h28q57 -1 100.5 22t66.5 65t23 96v264q0 11 7 17.5t17 6.5h72q11 0 17.5 -6.5zM447 255q-6 6 -6 16v39q0 10 6 16t16 6h39q10 0 16 -6t6 -16v-39q0 -10 -6 -16t-16 -6h-39q-10 0 -16 6zM100 627q-6 6 -6 16v40q0 10 6 16
t16 6h40q10 0 16 -6t6 -16v-40q0 -10 -6 -16t-16 -6h-40q-10 0 -16 6z" />
    <glyph glyph-name="uniFB2E" unicode="&#xfb2e;" horiz-adv-x="612" 
d="M562 21q0 -9 -6 -15t-14 -6h-84q-12 0 -18.5 4.5t-13.5 13.5l-202 287q-35 -28 -46.5 -64.5t-11.5 -79.5v-136q0 -11 -6.5 -18t-17.5 -7h-68q-10 0 -17 7t-7 18v137q0 80 23 134t88 99l-98 139q-6 8 -6 16q0 9 6 15t15 6h81q18 0 32 -19l185 -261q28 17 41 36.5t16 39
t3 49.5v130q0 11 7 18t17 7h72q11 0 18 -7t7 -18v-135q0 -66 -24.5 -116t-93.5 -93l117 -165q6 -7 6 -16zM180 -143q-6 6 -6 16v31q0 10 6 16t16 6h208q10 0 16 -6t6 -16v-31q0 -10 -6 -16t-16 -6h-208q-10 0 -16 6z" />
    <glyph glyph-name="uniFB2F" unicode="&#xfb2f;" horiz-adv-x="612" 
d="M562 21q0 -9 -6 -15t-14 -6h-84q-12 0 -18.5 4.5t-13.5 13.5l-202 287q-35 -28 -46.5 -64.5t-11.5 -79.5v-136q0 -11 -6.5 -18t-17.5 -7h-68q-10 0 -17 7t-7 18v137q0 80 23 134t88 99l-98 139q-6 8 -6 16q0 9 6 15t15 6h81q18 0 32 -19l185 -261q28 17 41 36.5t16 39
t3 49.5v130q0 11 7 18t17 7h72q11 0 18 -7t7 -18v-135q0 -66 -24.5 -116t-93.5 -93l117 -165q6 -7 6 -16zM420 -83q6 -6 6 -16v-31q0 -10 -6 -16t-16 -6h-72v-78q0 -10 -6 -16t-16 -6h-24q-10 0 -16 6t-6 16v78h-68q-10 0 -16 6t-6 16v31q0 10 6 16t16 6h208q10 0 16 -6z
" />
    <glyph glyph-name="uniFB30" unicode="&#xfb30;" horiz-adv-x="612" 
d="M562 21q0 -9 -6 -15t-14 -6h-84q-12 0 -18.5 4.5t-13.5 13.5l-202 287q-35 -28 -46.5 -64.5t-11.5 -79.5v-136q0 -11 -6.5 -18t-17.5 -7h-68q-10 0 -17 7t-7 18v137q0 80 23 134t88 99l-98 139q-6 8 -6 16q0 9 6 15t15 6h81q18 0 32 -19l185 -261q28 17 41 36.5t16 39
t3 49.5v130q0 11 7 18t17 7h72q11 0 18 -7t7 -18v-135q0 -66 -24.5 -116t-93.5 -93l117 -165q6 -7 6 -16zM292 159q6 -6 6 -16v-39q0 -10 -6 -16t-16 -6h-39q-10 0 -16 6t-6 16v39q0 10 6 16t16 6h39q10 0 16 -6z" />
    <glyph glyph-name="uniFB31" unicode="&#xfb31;" horiz-adv-x="560" 
d="M54 7q-7 7 -7 17v59q0 11 7 17.5t17 6.5h269v214q0 143 -142 143h-117q-10 0 -17 7t-7 17v59q0 11 7 17.5t17 6.5h122q134 0 202 -60.5t68 -187.5v-216h36q11 0 17.5 -6.5t6.5 -17.5v-59q0 -10 -6.5 -17t-17.5 -7h-438q-10 0 -17 7zM159 255q-6 6 -6 16v39q0 10 6 16
t16 6h39q10 0 16 -6t6 -16v-39q0 -10 -6 -16t-16 -6h-39q-10 0 -16 6z" />
    <glyph glyph-name="uniFB32" unicode="&#xfb32;" horiz-adv-x="465" 
d="M427 7q-7 -7 -18 -7h-85q-10 0 -16 6.5t-8 17.5l-19 94q-28 -42 -70 -68q-38 -24 -70.5 -37.5t-68.5 -20.5l-7 -1q-17 0 -17 16v78q0 17 21 25q5 2 42.5 14t64.5 27q23 14 45.5 35.5t37.5 45.5l-19 95q-15 75 -37 106t-71 31h-36q-10 0 -17 7t-7 17v63q0 11 7 17.5
t17 6.5h38q74 0 120.5 -25.5t73.5 -77.5t44 -139l61 -309q1 -10 -6 -17zM109 255q-6 6 -6 16v39q0 10 6 16t16 6h39q10 0 16 -6t6 -16v-39q0 -10 -6 -16t-16 -6h-39q-10 0 -16 6z" />
    <glyph glyph-name="uniFB33" unicode="&#xfb33;" horiz-adv-x="557" 
d="M512 564q7 -7 7 -17v-59q0 -10 -7 -17t-17 -7h-54q-13 -17 -20 -49t-7 -71v-322q0 -9 -8 -15.5t-18 -6.5h-80q-10 0 -16 6t-6 16v331q0 80 23 111h-252q-10 0 -17 7t-7 17v59q0 11 7 17.5t17 6.5h438q10 0 17 -7zM134 255q-6 6 -6 16v39q0 10 6 16t16 6h39q10 0 16 -6
t6 -16v-39q0 -10 -6 -16t-16 -6h-39q-10 0 -16 6z" />
    <glyph glyph-name="uniFB34" unicode="&#xfb34;" horiz-adv-x="633" 
d="M449 7q-7 7 -7 17v298q0 142 -142 142h-207q-10 0 -17 7t-7 17v59q0 11 7 17.5t17 6.5h212q266 0 266 -248v-299q0 -10 -6.5 -17t-17.5 -7h-81q-10 0 -17 7zM76 7q-7 7 -7 17v314q0 11 7 17.5t17 6.5h80q11 0 18 -7t7 -17v-314q0 -10 -7 -17t-18 -7h-80q-10 0 -17 7z
M281 255q-6 6 -6 16v39q0 10 6 16t16 6h39q10 0 16 -6t6 -16v-39q0 -10 -6 -16t-16 -6h-39q-10 0 -16 6z" />
    <glyph glyph-name="uniFB35" unicode="&#xfb35;" horiz-adv-x="307" 
d="M113 7q-7 7 -7 17v523q0 11 7 17.5t17 6.5h85q10 0 17 -7t7 -17v-523q0 -10 -7 -17t-17 -7h-85q-10 0 -17 7zM-6 255q-6 6 -6 16v39q0 10 6 16t16 6h39q10 0 16 -6t6 -16v-39q0 -10 -6 -16t-16 -6h-39q-10 0 -16 6z" />
    <glyph glyph-name="uniFB36" unicode="&#xfb36;" horiz-adv-x="406" 
d="M353.5 564.5q6.5 -6.5 6.5 -17.5v-59q0 -10 -7 -17t-17 -7h-53q-13 -17 -20 -49t-7 -71v-322q0 -9 -8 -15.5t-18 -6.5h-80q-10 0 -16 6t-6 16v331q0 80 23 111h-82q-10 0 -17 7t-7 17v59q0 11 7 17.5t17 6.5h267q11 0 17.5 -6.5zM19 255q-6 6 -6 16v39q0 10 6 16t16 6h39
q10 0 16 -6t6 -16v-39q0 -10 -6 -16t-16 -6h-39q-10 0 -16 6z" />
    <glyph glyph-name="uniFB38" unicode="&#xfb38;" horiz-adv-x="641" 
d="M128 54q-65 64 -65 183v310q0 11 7 17.5t17 6.5h72q11 0 17.5 -6.5t6.5 -17.5v-305q0 -69 37 -105t108 -36q69 0 103 33.5t35 101.5q1 10 0.5 32t-0.5 34v23q-1 69 -26.5 104.5t-71.5 35.5q-15 0 -34 -5t-32 -13q-4 -3 -10 -3q-8 0 -14 5.5t-6 14.5v55q0 12 3 20t13 13
q18 11 41 17t59 6q104 0 153 -57t51 -175q1 -10 1 -56t-1 -56q-5 -119 -67.5 -180t-196.5 -61q-135 0 -200 64zM289 255q-6 6 -6 16v39q0 10 6 16t16 6h39q10 0 16 -6t6 -16v-39q0 -10 -6 -16t-16 -6h-39q-10 0 -16 6z" />
    <glyph glyph-name="uniFB39" unicode="&#xfb39;" horiz-adv-x="306" 
d="M117 241q-7 7 -7 17v289q0 11 7 17.5t17 6.5h85q10 0 17 -7t7 -17v-289q0 -10 -7 -17t-17 -7h-85q-10 0 -17 7zM5 255q-6 6 -6 16v39q0 10 6 16t16 6h39q10 0 16 -6t6 -16v-39q0 -10 -6 -16t-16 -6h-39q-10 0 -16 6z" />
    <glyph glyph-name="uniFB3A" unicode="&#xfb3a;" horiz-adv-x="559" 
d="M226 464h-153q-10 0 -17 7t-7 17v59q0 11 7 17.5t17 6.5h158q134 0 200 -58t66 -186v-427q0 -11 -6.5 -17.5t-17.5 -6.5h-81q-10 0 -17 7t-7 17v422q0 142 -142 142zM196 254q-6 6 -6 16v39q0 10 6 16t16 6h39q10 0 16 -6t6 -16v-39q0 -10 -6 -16t-16 -6h-39q-10 0 -16 6
z" />
    <glyph glyph-name="uniFB3B" unicode="&#xfb3b;" horiz-adv-x="552" 
d="M73 7q-7 7 -7 17v63q0 11 7 17.5t17 6.5h144q72 0 107.5 36.5t39.5 106.5q1 13 1 32t-1 31q-6 143 -147 143h-144q-10 0 -17 7t-7 17v63q0 11 7 17.5t17 6.5h149q134 0 197.5 -65t68.5 -187q1 -13 1 -33q0 -21 -1 -34q-5 -122 -68.5 -187t-197.5 -65h-149q-10 0 -17 7z
M186 255q-6 6 -6 16v39q0 10 6 16t16 6h39q10 0 16 -6t6 -16v-39q0 -10 -6 -16t-16 -6h-39q-10 0 -16 6z" />
    <glyph glyph-name="uniFB3C" unicode="&#xfb3c;" horiz-adv-x="530" 
d="M427 510q56 -61 56 -195q0 -127 -69 -204t-176 -109l-41 -13q-10 -3 -18 4t-8 18v73q0 9 6 16.5t17 12.5l36 14q58 23 89.5 65t31.5 122q0 55 -12.5 86.5t-42 45.5t-82.5 14h-27h-3l-113 1q-11 0 -17.5 6.5t-6.5 16.5v202q0 11 7 17.5t17 6.5h74q11 0 17.5 -6.5
t6.5 -17.5v-115h49h20q133 0 189 -61zM174 249q-10 0 -16 6t-6 16v39q0 10 6 16t16 6h39q10 0 16 -6t6 -16v-39q0 -10 -6 -16t-16 -6h-39z" />
    <glyph glyph-name="uniFB3E" unicode="&#xfb3e;" horiz-adv-x="651" 
d="M526 507.5q62 -63.5 62 -180.5v-303q0 -10 -6.5 -17t-17.5 -7h-265q-10 0 -17 7t-7 17v59q0 11 7 17.5t17 6.5h161v213q0 64 -32 102.5t-81 38.5h-91l-82 -436q-1 -10 -8.5 -17.5t-17.5 -7.5h-78q-11 0 -17.5 7.5t-4.5 17.5l89 435h-59q-10 0 -17 7t-7 17v63q0 11 7 17.5
t17 6.5h286q100 0 162 -63.5zM296 243q-6 6 -6 16v39q0 10 6 16t16 6h39q10 0 16 -6t6 -16v-39q0 -10 -6 -16t-16 -6h-39q-10 0 -16 6z" />
    <glyph glyph-name="uniFB40" unicode="&#xfb40;" horiz-adv-x="425" 
d="M377 7q-7 -7 -18 -7h-85h-209q-10 0 -17 7t-7 17v59q0 11 7 17.5t17 6.5h181l-12 225q-3 50 -9.5 78t-24.5 43.5t-54 15.5h-46q-10 0 -17 7t-7 17v58q0 11 7 17.5t17 6.5h48q80 0 126.5 -27t67.5 -79.5t25 -135.5l16 -309q1 -10 -6 -17zM114 255q-6 6 -6 16v39q0 10 6 16
t16 6h39q10 0 16 -6t6 -16v-39q0 -10 -6 -16t-16 -6h-39q-10 0 -16 6z" />
    <glyph glyph-name="uniFB41" unicode="&#xfb41;" horiz-adv-x="644" 
d="M127.5 55q-64.5 65 -64.5 185v307q0 11 7 17.5t17 6.5h248q136 0 195.5 -59.5t64.5 -179.5q1 -10 1 -50q0 -41 -1 -51q-4 -120 -67.5 -180.5t-205.5 -60.5q-130 0 -194.5 65zM435.5 132.5q33.5 31.5 35.5 103.5q1 10 1 46q0 35 -1 45q-2 68 -38 102.5t-104 34.5h-147
v-222q0 -70 35.5 -105.5t103.5 -35.5q81 0 114.5 31.5zM283 255q-6 6 -6 16v39q0 10 6 16t16 6h39q10 0 16 -6t6 -16v-39q0 -10 -6 -16t-16 -6h-39q-10 0 -16 6z" />
    <glyph glyph-name="uniFB43" unicode="&#xfb43;" horiz-adv-x="582" 
d="M166 388q0 -33 7 -53t25 -25l33 -10q8 -3 12.5 -11.5t4.5 -19.5l1 -42q0 -11 -11 -16.5t-23 -3.5l-47 8q-50 9 -80 55t-30 125v152q0 11 7 17.5t17 6.5h177q128 0 191 -66t65 -186l1 -419q0 -10 -7 -17t-17 -7h-77q-10 0 -17 6.5t-7 17.5v417q-2 144 -144 144h-81v-73z
M279 242q-6 6 -6 16v39q0 10 6 16t16 6h39q10 0 16 -6t6 -16v-39q0 -10 -6 -16t-16 -6h-39q-10 0 -16 6z" />
    <glyph glyph-name="uniFB44" unicode="&#xfb44;" horiz-adv-x="577" 
d="M173 402q2 -61 32 -70l33 -9q8 -3 12.5 -11.5t4.5 -19.5l1 -37q0 -13 -12.5 -20t-28.5 -5l-40 8q-50 8 -80 53.5t-30 118.5v137q1 11 7.5 17.5t16.5 6.5h193q121 0 182 -66t65 -186q1 -10 1 -33q0 -24 -1 -34q-4 -120 -65 -186t-182 -66h-181q-10 0 -17 7t-7 17v63
q0 11 7 17.5t17 6.5h176q61 0 96 37.5t38 105.5q1 10 1 32q0 21 -1 31q-2 68 -37.5 105.5t-96.5 37.5h-104v-58zM292 240q-6 6 -6 16v39q0 10 6 16t16 6h39q10 0 16 -6t6 -16v-39q0 -10 -6 -16t-16 -6h-39q-10 0 -16 6z" />
    <glyph glyph-name="uniFB46" unicode="&#xfb46;" horiz-adv-x="560" 
d="M476 327q-31 -55 -91 -87l91 -128q6 -9 9 -16t3 -16v-56q0 -10 -6.5 -17t-17.5 -7h-383q-10 0 -17 7t-7 17v61q0 11 7 17.5t17 6.5h254l-302 425q-7 8 -7 17q0 8 6.5 14t14.5 6h85q19 0 29 -17l160 -225q66 39 66 146v71q0 11 6.5 18t17.5 7h72q10 0 17 -7t7 -18v-92
q0 -72 -31 -127zM98 212q-6 6 -6 16v39q0 10 6 16t16 6h39q10 0 16 -6t6 -16v-39q0 -10 -6 -16t-16 -6h-39q-10 0 -16 6z" />
    <glyph glyph-name="uniFB47" unicode="&#xfb47;" horiz-adv-x="646" 
d="M291 -7q-8 7 -8 18v73q0 9 6.5 17t17.5 12l35 14q58 23 89.5 65t31.5 122q0 55 -12.5 86.5t-42 45.5t-81.5 14h-234q-10 0 -17 7t-7 17v64q0 10 7 16.5t17 6.5h257q133 0 189 -61t56 -195q0 -127 -69 -204t-176 -109l-41 -13q-10 -3 -18 4zM76 -184.5q-7 6.5 -7 17.5v505
q0 11 7 17.5t17 6.5h78q11 0 17.5 -6.5t6.5 -17.5v-505q0 -11 -6.5 -17.5t-17.5 -6.5h-78q-10 0 -17 6.5zM269 255q-6 6 -6 16v39q0 10 6 16t16 6h39q10 0 16 -6t6 -16v-39q0 -10 -6 -16t-16 -6h-39q-10 0 -16 6z" />
    <glyph glyph-name="uniFB48" unicode="&#xfb48;" horiz-adv-x="546" 
d="M361 7q-7 7 -7 17v298q0 142 -142 142h-141q-10 0 -17 7t-7 17v59q0 11 7 17.5t17 6.5h146q134 0 200 -59t66 -185v-303q0 -10 -7 -17t-17 -7h-81q-10 0 -17 7zM184 255q-6 6 -6 16v39q0 10 6 16t16 6h39q10 0 16 -6t6 -16v-39q0 -10 -6 -16t-16 -6h-39q-10 0 -16 6z" />
    <glyph glyph-name="uniFB49" unicode="&#xfb49;" horiz-adv-x="739" 
d="M675.5 564.5q6.5 -6.5 6.5 -17.5v-270q0 -86 -37.5 -151t-103 -99.5t-148.5 -33.5h-85q-72 0 -128 30.5t-86.5 84.5t-30.5 121v318q0 11 7 17.5t17 6.5h72q11 0 17.5 -6.5t6.5 -17.5l3 -262q71 6 100 45t29 107v109q0 11 7 18t17 7h72q10 0 17 -7t7 -18v-112
q0 -105 -60 -169t-174 -73q19 -44 56.5 -68t86.5 -24h28q57 -1 100.5 22t66.5 65t23 96v264q0 11 7 17.5t17 6.5h72q11 0 17.5 -6.5zM447 255q-6 6 -6 16v39q0 10 6 16t16 6h39q10 0 16 -6t6 -16v-39q0 -10 -6 -16t-16 -6h-39q-10 0 -16 6z" />
    <glyph glyph-name="uniFB4A" unicode="&#xfb4a;" horiz-adv-x="686" 
d="M557 510.5q66 -60.5 66 -183.5v-303q0 -10 -6.5 -17t-17.5 -7h-80q-10 0 -17 7t-7 17v298q0 142 -143 142h-68q-10 -45 -14 -84t-3 -88l5 -268q0 -10 -6.5 -17t-17.5 -7l-176 1q-10 0 -17 7t-7 17v55q0 11 7 17.5t17 6.5l79 -1v186q-1 51 2.5 90.5t14.5 84.5h-57
q-10 0 -17 7t-7 17v59q0 11 7 17.5t17 6.5h247q133 0 199 -60.5zM346 255q-6 6 -6 16v39q0 10 6 16t16 6h39q10 0 16 -6t6 -16v-39q0 -10 -6 -16t-16 -6h-39q-10 0 -16 6z" />
    <glyph glyph-name="uniFB4B" unicode="&#xfb4b;" horiz-adv-x="270" 
d="M76 7q-7 7 -7 17v523q0 11 7 17.5t17 6.5h85q10 0 17 -7t7 -17v-523q0 -10 -7 -17t-17 -7h-85q-10 0 -17 7zM95 644q-6 6 -6 16v40q0 10 6 16t16 6h43q10 0 16.5 -6t6.5 -16v-40q0 -10 -6.5 -16t-16.5 -6h-43q-10 0 -16 6z" />
    <glyph glyph-name="zero" unicode="0" horiz-adv-x="652" 
d="M526.5 62q-62.5 -72 -200.5 -72t-200.5 72t-68.5 199q-1 25 -1 87q0 61 1 86q12 276 269 276q138 0 200.5 -72t68.5 -199q2 -50 2 -89t-2 -89q-6 -127 -68.5 -199zM424 153q31 38 36 113q2 25 2 84t-2 84q-5 75 -36 113t-98 38t-98 -38t-36 -113q-2 -50 -2 -84t2 -84
q5 -75 36 -113t98 -38t98 38z" />
    <glyph glyph-name="one" unicode="1" horiz-adv-x="456" 
d="M19 491q0 13 11 21l217 171q8 6 17 11.5t18 5.5h78q11 0 19 -8t8 -19v-646q0 -11 -8 -19t-19 -8h-81q-11 0 -19 8t-8 19v494l-142 -111q-7 -6 -16 -6q-13 0 -22 11l-47 59q-6 8 -6 17z" />
    <glyph glyph-name="two" unicode="2" horiz-adv-x="612" 
d="M416 487q0 44 -26.5 71t-81.5 27q-51 0 -78 -25t-39 -71q-3 -12 -11.5 -19t-18.5 -7h-79q-12 0 -20 7.5t-7 19.5q4 60 38 110.5t90 80t124 29.5q79 0 134 -33t82.5 -84.5t27.5 -106.5q0 -38 -7 -66t-30 -58.5t-68 -67.5l-185 -169h278q11 0 19 -8t8 -19v-71q0 -11 -8 -19
t-19 -8h-467q-11 0 -19 8t-8 19v61q0 26 27 47l297 257q47 38 47 95z" />
    <glyph glyph-name="three" unicode="3" horiz-adv-x="635" 
d="M552 692q8 -8 8 -19v-71q0 -10 -6 -18.5t-16 -18.5l-146 -154q91 -11 144.5 -64t53.5 -138q0 -67 -35 -117t-96.5 -76t-139.5 -26q-88 0 -150 26.5t-94.5 68.5t-36.5 88q-1 12 7 19.5t20 7.5h79q9 0 16 -6t14 -19q15 -28 47 -44t98 -16q62 0 99 25t37 69q0 43 -36 63.5
t-100 20.5h-83q-11 0 -19 8t-8 19v71q0 10 6 18.5t16 18.5l140 147h-276q-11 0 -19 8t-8 19v71q0 11 8 19t19 8h438q11 0 19 -8z" />
    <glyph glyph-name="four" unicode="4" horiz-adv-x="647" 
d="M375 8q-8 8 -8 19v121h-310q-11 0 -19 8t-8 19v71q0 12 5 21.5t17 25.5l306 382q20 25 41 25h76q11 0 19 -8t8 -19v-400h86q11 0 19 -8t8 -19v-71q0 -11 -8 -19t-19 -8h-86v-121q0 -11 -8 -19t-19 -8h-81q-11 0 -19 8zM367 487l-171 -214h171v214z" />
    <glyph glyph-name="five" unicode="5" horiz-adv-x="610" 
d="M107 692q8 8 19 8h376q11 0 19 -8t8 -19v-71q0 -11 -8 -19t-19 -8h-281l-11 -128q39 15 97 15q76 0 135.5 -27t93 -79t33.5 -125q0 -121 -73 -181t-189 -60q-88 0 -147 26.5t-88.5 71t-32.5 99.5q-1 12 7 19.5t20 7.5h81q10 0 18 -6.5t11 -17.5q12 -42 45.5 -58.5
t85.5 -16.5q57 0 92 31.5t35 84.5q0 45 -35.5 75t-91.5 31q-31 0 -48.5 -5t-35.5 -14q-8 -5 -16.5 -8t-18.5 -3h-92q-11 0 -19 8t-8 19l30 339q0 11 8 19z" />
    <glyph glyph-name="six" unicode="6" horiz-adv-x="620" 
d="M301 680q13 20 31 20h90q11 0 19 -8t8 -19q0 -5 -5 -13l-124 -178q78 -1 139 -32t95 -86t34 -127t-34.5 -128t-96.5 -87.5t-141 -31.5t-141 31.5t-96.5 87.5t-34.5 128q1 52 17.5 90t49.5 85zM216.5 323q-36.5 -34 -36.5 -86q0 -53 36.5 -87.5t99.5 -34.5t99.5 34.5
t36.5 87.5q0 52 -36.5 86t-99.5 34t-99.5 -34z" />
    <glyph glyph-name="seven" unicode="7" horiz-adv-x="548" 
d="M513 692q8 -8 8 -19v-66q0 -9 -4.5 -21t-11.5 -27l-232 -535q-10 -24 -29 -24h-83q-11 0 -19 8t-8 19q0 5 3 12l233 536h-314q-11 0 -19 8t-8 19v71q0 11 8 19t19 8h438q11 0 19 -8z" />
    <glyph glyph-name="eight" unicode="8" horiz-adv-x="650" 
d="M74 505q0 60 32.5 107t89.5 72.5t129 25.5t129 -25.5t89.5 -72.5t32.5 -107q0 -82 -59 -136q40 -28 62 -69t22 -92q0 -65 -34 -114t-96.5 -76.5t-145.5 -27.5t-145.5 27.5t-96.5 76.5t-34 114q0 51 21.5 92t62.5 69q-59 53 -59 136zM407 446q34 21 34 59t-34 59t-82 21
t-82 -21t-34 -59t34 -59t82 -21t82 21zM424.5 139.5q41.5 24.5 41.5 68.5q0 43 -41 67.5t-100 24.5t-100 -24.5t-41 -67.5q0 -44 41.5 -68.5t99.5 -24.5t99.5 24.5z" />
    <glyph glyph-name="nine" unicode="9" horiz-adv-x="604" 
d="M295 229q-74 0 -134 30t-94.5 84.5t-34.5 125.5t35 126t96 85t136 30t136 -30t96 -85t35 -126q0 -52 -18.5 -91t-53.5 -90l-188 -268q-12 -20 -31 -20h-90q-11 0 -19 8t-8 19q0 6 5 13zM393.5 384.5q36.5 30.5 36.5 84.5t-36.5 85t-94.5 31t-94.5 -31t-36.5 -85t36 -84.5
t95 -30.5q58 0 94.5 30.5z" />
    <glyph glyph-name="zero.denominator" horiz-adv-x="372" 
d="M337 175q0 -39 -2 -56q-4 -51 -42 -87.5t-107 -36.5t-107 36.5t-42 87.5q-2 34 -2 56q0 21 2 55q4 52 42 88.5t107 36.5t107 -36.5t42 -88.5q2 -17 2 -55zM224.5 256q-11.5 13 -38.5 13q-47 0 -53 -48q-1 -7 -1 -46t1 -46q6 -48 53 -48t53 48q2 14 2 46t-2 46
q-3 22 -14.5 35z" />
    <glyph glyph-name="one.denominator" horiz-adv-x="266" 
d="M216 6q-6 -6 -16 -6h-52q-10 0 -16 6t-6 16v196l-47 -35q-8 -4 -14 -4q-9 0 -17 9l-30 37q-5 7 -5 14q0 9 9 17l117 87q10 7 23 7h38q10 0 16 -6t6 -16v-306q0 -10 -6 -16z" />
    <glyph glyph-name="two.denominator" horiz-adv-x="348" 
d="M32.5 68.5q4.5 7.5 17.5 17.5q38 29 66 48q57 41 75.5 59.5t18.5 37.5q0 16 -9 27t-28 11q-17 0 -25 -7t-15 -19q-5 -10 -10 -12t-15 -2h-52q-18 0 -18 17q0 27 16.5 52t47.5 41t71 16q62 0 97.5 -35t35.5 -87q0 -28 -8 -46t-24.5 -33.5t-56.5 -47.5l-25 -20h102
q10 0 16 -6t6 -16v-42q0 -10 -6 -16t-16 -6h-244q-10 0 -16 6t-6 16v30q0 9 4.5 16.5z" />
    <glyph glyph-name="three.denominator" horiz-adv-x="354" 
d="M302.5 269q-2.5 -6 -13.5 -15l-56 -44q44 -10 67 -37.5t23 -64.5q0 -30 -19.5 -56t-54.5 -41.5t-77 -15.5q-48 0 -81 15.5t-49.5 37.5t-18.5 40v2q0 8 6 13t11 5h58q6 0 10.5 -3.5t9.5 -8.5q10 -9 20.5 -12t31.5 -3q20 0 32.5 8t12.5 22q0 15 -10 21.5t-33 6.5h-46
q-10 0 -16 6t-6 16v23q0 12 11 23l67 57h-115q-10 0 -16 6t-6 16v42q0 10 6 16t16 6h216q10 0 16 -6t6 -16v-41q0 -12 -2.5 -18z" />
    <glyph glyph-name="four.denominator" horiz-adv-x="367" 
d="M265 350q10 0 16 -6t6 -16v-185h35q10 0 16 -6t6 -16v-42q0 -10 -6 -16t-16 -6h-35v-35q0 -10 -6 -16t-16 -6h-52q-10 0 -16 6t-6 16v35h-148q-10 0 -16 6t-6 16v43q0 14 12 30l134 180q13 18 30 18h68zM191 143v94l-69 -94h69z" />
    <glyph glyph-name="five.denominator" horiz-adv-x="346" 
d="M291 270q-6 -6 -16 -6h-131l-5 -42q15 6 23.5 8.5t25.5 2.5q55 0 92 -31.5t37 -82.5q0 -31 -18 -59.5t-51 -46.5t-75 -18q-40 0 -73 15t-52.5 38t-20.5 45v2q0 7 6 12t11 5h58q10 0 19 -11q9 -10 19 -15t33 -5q22 0 35.5 11.5t13.5 29.5q0 17 -13.5 27.5t-35.5 10.5
q-13 0 -20.5 -3t-15.5 -9t-14 -6h-57q-10 0 -16.5 7.5t-5.5 18.5l18 155q1 11 8 18.5t17 8.5h188q10 0 16 -6t6 -16v-42q0 -10 -6 -16z" />
    <glyph glyph-name="six.denominator" horiz-adv-x="355" 
d="M163 335q13 15 29 15h57q8 0 13.5 -6t5.5 -14q0 -7 -11 -20l-59 -71q53 -4 94 -34.5t41 -86.5q0 -57 -43.5 -90t-108.5 -33q-66 0 -109 32.5t-43 90.5q0 35 15 62t35 51zM222 88q16 13 16 29q0 19 -16 31.5t-41 12.5t-41 -12.5t-16 -31.5q0 -16 16 -29t41 -13t41 13z" />
    <glyph glyph-name="seven.denominator" horiz-adv-x="309" 
d="M284 266l-104 -242q-10 -24 -26 -24h-53q-9 0 -14.5 6t-5.5 15q0 7 4 15l98 228h-140q-10 0 -16 6t-6 16v42q0 10 6 16t16 6h222q10 0 16 -6t6 -16v-40q0 -15 -3 -22z" />
    <glyph glyph-name="eight.denominator" horiz-adv-x="362" 
d="M68.5 26q-36.5 31 -36.5 75q0 27 12 50t34 33q-16 10 -25 28t-9 41q0 41 33.5 71.5t103.5 30.5t103.5 -30.5t33.5 -71.5q0 -23 -9 -41t-25 -28q22 -10 34 -33t12 -50q0 -44 -36.5 -75t-112.5 -31t-112.5 31zM212.5 225.5q12.5 8.5 12.5 23.5t-12.5 23t-31.5 8t-31.5 -8
t-12.5 -23t12.5 -23.5t31.5 -8.5t31.5 8.5zM143 132q-15 -8 -15 -27q0 -18 16 -26.5t37 -8.5t37 8.5t16 26.5q0 19 -15 27t-38 8t-38 -8z" />
    <glyph glyph-name="nine.denominator" horiz-adv-x="355" 
d="M192 15q-13 -15 -29 -15h-57q-8 0 -13.5 6t-5.5 14q0 7 11 20l59 71q-53 4 -94 34.5t-41 86.5q0 57 43.5 90t108.5 33q66 0 109 -32.5t43 -90.5q0 -35 -15 -62t-35 -51zM133 262q-16 -13 -16 -29q0 -19 16 -31.5t41 -12.5t41 12.5t16 31.5q0 16 -16 29t-41 13t-41 -13z
" />
    <glyph glyph-name="zero.numerator" horiz-adv-x="372" 
d="M337 525q0 -39 -2 -56q-4 -51 -42 -87.5t-107 -36.5t-107 36.5t-42 87.5q-2 34 -2 56q0 21 2 55q4 52 42 88.5t107 36.5t107 -36.5t42 -88.5q2 -17 2 -55zM224.5 606q-11.5 13 -38.5 13q-47 0 -53 -48q-1 -7 -1 -46t1 -46q6 -48 53 -48t53 48q2 14 2 46t-2 46
q-3 22 -14.5 35z" />
    <glyph glyph-name="one.numerator" horiz-adv-x="266" 
d="M216 356q-6 -6 -16 -6h-52q-10 0 -16 6t-6 16v196l-47 -35q-8 -4 -14 -4q-9 0 -17 9l-30 37q-5 7 -5 14q0 9 9 17l117 87q10 7 23 7h38q10 0 16 -6t6 -16v-306q0 -10 -6 -16z" />
    <glyph glyph-name="two.numerator" horiz-adv-x="348" 
d="M32.5 418.5q4.5 7.5 17.5 17.5q38 29 66 48q57 41 75.5 59.5t18.5 37.5q0 16 -9 27t-28 11q-17 0 -25 -7t-15 -19q-5 -10 -10 -12t-15 -2h-52q-18 0 -18 17q0 27 16.5 52t47.5 41t71 16q62 0 97.5 -35t35.5 -87q0 -28 -8 -46t-24.5 -33.5t-56.5 -47.5l-25 -20h102
q10 0 16 -6t6 -16v-42q0 -10 -6 -16t-16 -6h-244q-10 0 -16 6t-6 16v30q0 9 4.5 16.5z" />
    <glyph glyph-name="three.numerator" horiz-adv-x="354" 
d="M302.5 619q-2.5 -6 -13.5 -15l-56 -44q44 -10 67 -37.5t23 -64.5q0 -30 -19.5 -56t-54.5 -41.5t-77 -15.5q-48 0 -81 15.5t-49.5 37.5t-18.5 40v2q0 8 6 13t11 5h58q6 0 10.5 -3.5t9.5 -8.5q10 -9 20.5 -12t31.5 -3q20 0 32.5 8t12.5 22q0 15 -10 21.5t-33 6.5h-46
q-10 0 -16 6t-6 16v23q0 12 11 23l67 57h-115q-10 0 -16 6t-6 16v42q0 10 6 16t16 6h216q10 0 16 -6t6 -16v-41q0 -12 -2.5 -18z" />
    <glyph glyph-name="four.numerator" horiz-adv-x="367" 
d="M265 700q10 0 16 -6t6 -16v-185h35q10 0 16 -6t6 -16v-42q0 -10 -6 -16t-16 -6h-35v-35q0 -10 -6 -16t-16 -6h-52q-10 0 -16 6t-6 16v35h-148q-10 0 -16 6t-6 16v43q0 14 12 30l134 180q13 18 30 18h68zM191 493v94l-69 -94h69z" />
    <glyph glyph-name="five.numerator" horiz-adv-x="346" 
d="M291 620q-6 -6 -16 -6h-131l-5 -42q15 6 23.5 8.5t25.5 2.5q55 0 92 -31.5t37 -82.5q0 -31 -18 -59.5t-51 -46.5t-75 -18q-40 0 -73 15t-52.5 38t-20.5 45v2q0 7 6 12t11 5h58q10 0 19 -11q9 -10 19 -15t33 -5q22 0 35.5 11.5t13.5 29.5q0 17 -13.5 27.5t-35.5 10.5
q-13 0 -20.5 -3t-15.5 -9t-14 -6h-57q-10 0 -16.5 7.5t-5.5 18.5l18 155q1 11 8 18.5t17 8.5h188q10 0 16 -6t6 -16v-42q0 -10 -6 -16z" />
    <glyph glyph-name="six.numerator" horiz-adv-x="355" 
d="M163 685q13 15 29 15h57q8 0 13.5 -6t5.5 -14q0 -7 -11 -20l-59 -71q53 -4 94 -34.5t41 -86.5q0 -57 -43.5 -90t-108.5 -33q-66 0 -109 32.5t-43 90.5q0 35 15 62t35 51zM222 438q16 13 16 29q0 19 -16 31.5t-41 12.5t-41 -12.5t-16 -31.5q0 -16 16 -29t41 -13t41 13z
" />
    <glyph glyph-name="seven.numerator" horiz-adv-x="309" 
d="M284 616l-104 -242q-10 -24 -26 -24h-53q-9 0 -14.5 6t-5.5 15q0 7 4 15l98 228h-140q-10 0 -16 6t-6 16v42q0 10 6 16t16 6h222q10 0 16 -6t6 -16v-40q0 -15 -3 -22z" />
    <glyph glyph-name="eight.numerator" horiz-adv-x="362" 
d="M68.5 376q-36.5 31 -36.5 75q0 27 12 50t34 33q-16 10 -25 28t-9 41q0 41 33.5 71.5t103.5 30.5t103.5 -30.5t33.5 -71.5q0 -23 -9 -41t-25 -28q22 -10 34 -33t12 -50q0 -44 -36.5 -75t-112.5 -31t-112.5 31zM212.5 575.5q12.5 8.5 12.5 23.5t-12.5 23t-31.5 8t-31.5 -8
t-12.5 -23t12.5 -23.5t31.5 -8.5t31.5 8.5zM143 482q-15 -8 -15 -27q0 -18 16 -26.5t37 -8.5t37 8.5t16 26.5q0 19 -15 27t-38 8t-38 -8z" />
    <glyph glyph-name="nine.numerator" horiz-adv-x="355" 
d="M192 366q-13 -15 -29 -15h-57q-8 0 -13.5 6t-5.5 14q0 7 11 20l59 71q-53 4 -94 34.5t-41 86.5q0 57 43.5 90t108.5 33q66 0 109 -32.5t43 -90.5q0 -35 -15 -62t-35 -51zM133 613q-16 -13 -16 -29q0 -19 16 -31.5t41 -12.5t41 12.5t16 31.5q0 16 -16 29t-41 13t-41 -13z
" />
    <glyph glyph-name="zero.otlf" horiz-adv-x="640" 
d="M520.5 62q-62.5 -72 -200.5 -72t-200.5 72t-68.5 199q-1 25 -1 87q0 61 1 86q12 276 269 276q138 0 200.5 -72t68.5 -199q2 -50 2 -89t-2 -89q-6 -127 -68.5 -199zM418 153q31 38 36 113q2 25 2 84t-2 84q-5 75 -36 113t-98 38t-98 -38t-36 -113q-2 -50 -2 -84t2 -84
q5 -75 36 -113t98 -38t98 38z" />
    <glyph glyph-name="one.otlf" horiz-adv-x="640" 
d="M593 27q0 -11 -8 -19t-19 -8h-468q-11 0 -19 8t-8 19v71q0 11 8 19t19 8h170v396l-107 -84q-7 -6 -16 -6q-13 0 -22 11l-47 59q-6 8 -6 17q0 13 11 21l182 144q8 6 17 11.5t18 5.5h78q11 0 19 -8t8 -19v-548h163q11 0 19 -8t8 -19v-71z" />
    <glyph glyph-name="two.otlf" horiz-adv-x="640" 
d="M430 487q0 44 -26.5 71t-81.5 27q-51 0 -78 -25t-39 -71q-3 -12 -11.5 -19t-18.5 -7h-79q-12 0 -20 7.5t-7 19.5q4 60 38 110.5t90 80t124 29.5q79 0 134 -33t82.5 -84.5t27.5 -106.5q0 -38 -7 -66t-30 -58.5t-68 -67.5l-185 -169h278q11 0 19 -8t8 -19v-71q0 -11 -8 -19
t-19 -8h-467q-11 0 -19 8t-8 19v61q0 26 27 47l297 257q47 38 47 95z" />
    <glyph glyph-name="three.otlf" horiz-adv-x="640" 
d="M554 692q8 -8 8 -19v-71q0 -10 -6 -18.5t-16 -18.5l-146 -154q91 -11 144.5 -64t53.5 -138q0 -67 -35 -117t-96.5 -76t-139.5 -26q-88 0 -150 26.5t-94.5 68.5t-36.5 88q-1 12 7 19.5t20 7.5h79q9 0 16 -6t14 -19q15 -28 47 -44t98 -16q62 0 99 25t37 69q0 43 -36 63.5
t-100 20.5h-83q-11 0 -19 8t-8 19v71q0 10 6 18.5t16 18.5l140 147h-276q-11 0 -19 8t-8 19v71q0 11 8 19t19 8h438q11 0 19 -8z" />
    <glyph glyph-name="four.otlf" horiz-adv-x="640" 
d="M371 8q-8 8 -8 19v121h-310q-11 0 -19 8t-8 19v71q0 12 5 21.5t17 25.5l306 382q20 25 41 25h76q11 0 19 -8t8 -19v-400h86q11 0 19 -8t8 -19v-71q0 -11 -8 -19t-19 -8h-86v-121q0 -11 -8 -19t-19 -8h-81q-11 0 -19 8zM363 487l-171 -214h171v214z" />
    <glyph glyph-name="five.otlf" horiz-adv-x="640" 
d="M122 692q8 8 19 8h376q11 0 19 -8t8 -19v-71q0 -11 -8 -19t-19 -8h-281l-11 -128q39 15 97 15q76 0 135.5 -27t93 -79t33.5 -125q0 -121 -73 -181t-189 -60q-88 0 -147 26.5t-88.5 71t-32.5 99.5q-1 12 7 19.5t20 7.5h81q10 0 18 -6.5t11 -17.5q12 -42 45.5 -58.5
t85.5 -16.5q57 0 92 31.5t35 84.5q0 45 -35.5 75t-91.5 31q-31 0 -48.5 -5t-35.5 -14q-8 -5 -16.5 -8t-18.5 -3h-92q-11 0 -19 8t-8 19l30 339q0 11 8 19z" />
    <glyph glyph-name="six.otlf" horiz-adv-x="640" 
d="M311 680q13 20 31 20h90q11 0 19 -8t8 -19q0 -5 -5 -13l-124 -178q78 -1 139 -32t95 -86t34 -127t-34.5 -128t-96.5 -87.5t-141 -31.5t-141 31.5t-96.5 87.5t-34.5 128q1 52 17.5 90t49.5 85zM226.5 323q-36.5 -34 -36.5 -86q0 -53 36.5 -87.5t99.5 -34.5t99.5 34.5
t36.5 87.5q0 52 -36.5 86t-99.5 34t-99.5 -34z" />
    <glyph glyph-name="seven.otlf" horiz-adv-x="640" 
d="M559 692q8 -8 8 -19v-66q0 -9 -4.5 -21t-11.5 -27l-232 -535q-10 -24 -29 -24h-83q-11 0 -19 8t-8 19q0 5 3 12l233 536h-314q-11 0 -19 8t-8 19v71q0 11 8 19t19 8h438q11 0 19 -8z" />
    <glyph glyph-name="eight.otlf" horiz-adv-x="640" 
d="M69 505q0 60 32.5 107t89.5 72.5t129 25.5t129 -25.5t89.5 -72.5t32.5 -107q0 -82 -59 -136q40 -28 62 -69t22 -92q0 -65 -34 -114t-96.5 -76.5t-145.5 -27.5t-145.5 27.5t-96.5 76.5t-34 114q0 51 21.5 92t62.5 69q-59 53 -59 136zM402 446q34 21 34 59t-34 59t-82 21
t-82 -21t-34 -59t34 -59t82 -21t82 21zM419.5 139.5q41.5 24.5 41.5 68.5q0 43 -41 67.5t-100 24.5t-100 -24.5t-41 -67.5q0 -44 41.5 -68.5t99.5 -24.5t99.5 24.5z" />
    <glyph glyph-name="nine.otlf" horiz-adv-x="640" 
d="M313 229q-74 0 -134 30t-94.5 84.5t-34.5 125.5t35 126t96 85t136 30t136 -30t96 -85t35 -126q0 -52 -18.5 -91t-53.5 -90l-188 -268q-12 -20 -31 -20h-90q-11 0 -19 8t-8 19q0 6 5 13zM411.5 384.5q36.5 30.5 36.5 84.5t-36.5 85t-94.5 31t-94.5 -31t-36.5 -85t36 -84.5
t95 -30.5q58 0 94.5 30.5z" />
    <glyph glyph-name="fraction" unicode="&#x2044;" horiz-adv-x="160" 
d="M288.5 695.5q7.5 4.5 20.5 4.5h50q11 0 17.5 -5.5t6.5 -14.5q0 -6 -4 -11l-494 -650q-8 -10 -15.5 -14.5t-20.5 -4.5h-50q-11 0 -17.5 5.5t-6.5 14.5q0 6 4 11l494 650q8 10 15.5 14.5z" />
    <glyph glyph-name="onehalf" unicode="&#xbd;" horiz-adv-x="801" 
d="M597.5 695.5q7.5 4.5 20.5 4.5h50q11 0 17.5 -5.5t6.5 -14.5q0 -6 -4 -11l-494 -650q-8 -10 -15.5 -14.5t-20.5 -4.5h-50q-11 0 -17.5 5.5t-6.5 14.5q0 6 4 11l494 650q8 10 15.5 14.5zM230 356q-6 -6 -16 -6h-52q-10 0 -16 6t-6 16v196l-47 -35q-8 -4 -14 -4q-9 0 -17 9
l-30 37q-5 7 -5 14q0 9 9 17l117 87q10 7 23 7h38q10 0 16 -6t6 -16v-306q0 -10 -6 -16zM476.5 68.5q4.5 7.5 17.5 17.5q38 29 66 48q57 41 75.5 59.5t18.5 37.5q0 16 -9 27t-28 11q-17 0 -25 -7t-15 -19q-5 -10 -10 -12t-15 -2h-52q-18 0 -18 17q0 27 16.5 52t47.5 41
t71 16q62 0 97.5 -35t35.5 -87q0 -28 -8 -46t-24.5 -33.5t-56.5 -47.5l-25 -20h102q10 0 16 -6t6 -16v-42q0 -10 -6 -16t-16 -6h-244q-10 0 -16 6t-6 16v30q0 9 4.5 16.5z" />
    <glyph glyph-name="uni2153" unicode="&#x2153;" horiz-adv-x="818" 
d="M597.5 695.5q7.5 4.5 20.5 4.5h50q11 0 17.5 -5.5t6.5 -14.5q0 -6 -4 -11l-494 -650q-8 -10 -15.5 -14.5t-20.5 -4.5h-50q-11 0 -17.5 5.5t-6.5 14.5q0 6 4 11l494 650q8 10 15.5 14.5zM230 356q-6 -6 -16 -6h-52q-10 0 -16 6t-6 16v196l-47 -35q-8 -4 -14 -4q-9 0 -17 9
l-30 37q-5 7 -5 14q0 9 9 17l117 87q10 7 23 7h38q10 0 16 -6t6 -16v-306q0 -10 -6 -16zM758.5 269q-2.5 -6 -13.5 -15l-56 -44q44 -10 67 -37.5t23 -64.5q0 -30 -19.5 -56t-54.5 -41.5t-77 -15.5q-48 0 -81 15.5t-49.5 37.5t-18.5 40v2q0 8 6 13t11 5h58q6 0 10.5 -3.5
t9.5 -8.5q10 -9 20.5 -12t31.5 -3q20 0 32.5 8t12.5 22q0 15 -10 21.5t-33 6.5h-46q-10 0 -16 6t-6 16v23q0 12 11 23l67 57h-115q-10 0 -16 6t-6 16v42q0 10 6 16t16 6h216q10 0 16 -6t6 -16v-41q0 -12 -2.5 -18z" />
    <glyph glyph-name="uni2154" unicode="&#x2154;" horiz-adv-x="878" 
d="M659.5 695.5q7.5 4.5 20.5 4.5h50q11 0 17.5 -5.5t6.5 -14.5q0 -6 -4 -11l-494 -650q-8 -10 -15.5 -14.5t-20.5 -4.5h-50q-11 0 -17.5 5.5t-6.5 14.5q0 6 4 11l494 650q8 10 15.5 14.5zM44.5 418.5q4.5 7.5 17.5 17.5q38 29 66 48q57 41 75.5 59.5t18.5 37.5q0 16 -9 27
t-28 11q-17 0 -25 -7t-15 -19q-5 -10 -10 -12t-15 -2h-52q-18 0 -18 17q0 27 16.5 52t47.5 41t71 16q62 0 97.5 -35t35.5 -87q0 -28 -8 -46t-24.5 -33.5t-56.5 -47.5l-25 -20h102q10 0 16 -6t6 -16v-42q0 -10 -6 -16t-16 -6h-244q-10 0 -16 6t-6 16v30q0 9 4.5 16.5z
M820.5 269q-2.5 -6 -13.5 -15l-56 -44q44 -10 67 -37.5t23 -64.5q0 -30 -19.5 -56t-54.5 -41.5t-77 -15.5q-48 0 -81 15.5t-49.5 37.5t-18.5 40v2q0 8 6 13t11 5h58q6 0 10.5 -3.5t9.5 -8.5q10 -9 20.5 -12t31.5 -3q20 0 32.5 8t12.5 22q0 15 -10 21.5t-33 6.5h-46
q-10 0 -16 6t-6 16v23q0 12 11 23l67 57h-115q-10 0 -16 6t-6 16v42q0 10 6 16t16 6h216q10 0 16 -6t6 -16v-41q0 -12 -2.5 -18z" />
    <glyph glyph-name="onequarter" unicode="&#xbc;" horiz-adv-x="771" 
d="M597.5 695.5q7.5 4.5 20.5 4.5h50q11 0 17.5 -5.5t6.5 -14.5q0 -6 -4 -11l-494 -650q-8 -10 -15.5 -14.5t-20.5 -4.5h-50q-11 0 -17.5 5.5t-6.5 14.5q0 6 4 11l494 650q8 10 15.5 14.5zM230 356q-6 -6 -16 -6h-52q-10 0 -16 6t-6 16v196l-47 -35q-8 -4 -14 -4q-9 0 -17 9
l-30 37q-5 7 -5 14q0 9 9 17l117 87q10 7 23 7h38q10 0 16 -6t6 -16v-306q0 -10 -6 -16zM655 350q10 0 16 -6t6 -16v-185h35q10 0 16 -6t6 -16v-42q0 -10 -6 -16t-16 -6h-35v-35q0 -10 -6 -16t-16 -6h-52q-10 0 -16 6t-6 16v35h-148q-10 0 -16 6t-6 16v43q0 14 12 30
l134 180q13 18 30 18h68zM581 143v94l-69 -94h69z" />
    </font>
</defs>
</svg>
