<?xml version="1.0" standalone="no"?>
<!DOCTYPE svg PUBLIC "-//W3C//DTD SVG 1.1//EN" "http://www.w3.org/Graphics/SVG/1.1/DTD/svg11.dtd" >
<svg>
<metadata>
Created by FontForge 20090622 at Sun Jul 31 01:08:00 2016
 By deploy user
Copyright (c) 2015 by Hubert &#38; Fischer. All rights reserved. Hebrew characters (c) 2016 by Meir Sadan.
</metadata>
<defs>
<font id="Rubik-Bold" horiz-adv-x="718" >
  <font-face 
    font-family="Rubik"
    font-weight="700"
    font-stretch="normal"
    units-per-em="1000"
    panose-1="2 0 6 4 0 0 0 2 0 4"
    ascent="800"
    descent="-200"
    x-height="520"
    cap-height="700"
    bbox="-261 -293 1226 935"
    underline-thickness="50"
    underline-position="-25"
    unicode-range="U+000D-U+FB4B"
  />
<missing-glyph horiz-adv-x="290" 
 />
    <glyph glyph-name="f_f" unicode="ff" horiz-adv-x="833" 
d="M792 520q11 0 19 -8t8 -19v-101q0 -11 -8 -19t-19 -8h-123v-338q0 -11 -8 -19t-19 -8h-126q-11 0 -19 8t-8 19v338h-192v-338q0 -11 -8 -19t-19 -8h-126q-11 0 -19 8t-8 19v338h-69q-11 0 -19 8t-8 19v101q0 11 8 19t19 8h69v27q0 90 61 141.5t157 51.5h95q11 0 19 -8
t8 -19v-101q0 -11 -8 -19t-19 -8h-90q-43 0 -43 -43v-22h192v27q0 90 61 141.5t157 51.5h95q11 0 19 -8t8 -19v-101q0 -11 -8 -19t-19 -8h-90q-43 0 -43 -43v-22h123z" />
    <glyph glyph-name="f_f_i" unicode="ffi" horiz-adv-x="1087" 
d="M1021 8q-8 -8 -19 -8h-126q-11 0 -19 8t-8 19v338h-180v-338q0 -11 -8 -19t-19 -8h-126q-11 0 -19 8t-8 19v338h-192v-338q0 -11 -8 -19t-19 -8h-126q-11 0 -19 8t-8 19v338h-69q-11 0 -19 8t-8 19v101q0 11 8 19t19 8h69v27q0 90 61 141.5t157 51.5h95q11 0 19 -8t8 -19
v-101q0 -11 -8 -19t-19 -8h-90q-43 0 -43 -43v-22h192v27q0 90 61 141.5t157 51.5h295q11 0 19 -8t8 -19v-101q0 -11 -8 -19t-19 -8h-290q-43 0 -43 -43v-22h333q11 0 19 -8t8 -19v-466q0 -11 -8 -19z" />
    <glyph glyph-name="f_f_l" unicode="ffl" horiz-adv-x="1099" 
d="M1033 8q-8 -8 -19 -8h-126q-11 0 -19 8t-8 19v338h-192v-338q0 -11 -8 -19t-19 -8h-126q-11 0 -19 8t-8 19v338h-192v-338q0 -11 -8 -19t-19 -8h-126q-11 0 -19 8t-8 19v338h-69q-11 0 -19 8t-8 19v101q0 11 8 19t19 8h69v27q0 90 61 141.5t157 51.5h95q11 0 19 -8t8 -19
v-101q0 -11 -8 -19t-19 -8h-90q-43 0 -43 -43v-22h192v27q0 90 61 141.5t157 51.5h95q11 0 19 -8t8 -19v-101q0 -11 -8 -19t-19 -8h-90q-43 0 -43 -43v-22h192v193q0 11 8 19t19 8h126q11 0 19 -8t8 -19v-686q0 -11 -8 -19z" />
    <glyph glyph-name="fi" unicode="fi" horiz-adv-x="715" 
d="M649 8q-8 -8 -19 -8h-126q-11 0 -19 8t-8 19v338h-180v-338q0 -11 -8 -19t-19 -8h-126q-11 0 -19 8t-8 19v338h-69q-11 0 -19 8t-8 19v101q0 11 8 19t19 8h69v27q0 90 61 141.5t157 51.5h295q11 0 19 -8t8 -19v-101q0 -11 -8 -19t-19 -8h-290q-43 0 -43 -43v-22h333
q11 0 19 -8t8 -19v-466q0 -11 -8 -19z" />
    <glyph glyph-name="fl" unicode="fl" horiz-adv-x="727" 
d="M661 8q-8 -8 -19 -8h-126q-11 0 -19 8t-8 19v338h-192v-338q0 -11 -8 -19t-19 -8h-126q-11 0 -19 8t-8 19v338h-69q-11 0 -19 8t-8 19v101q0 11 8 19t19 8h69v27q0 90 61 141.5t157 51.5h95q11 0 19 -8t8 -19v-101q0 -11 -8 -19t-19 -8h-90q-43 0 -43 -43v-22h192v193
q0 11 8 19t19 8h126q11 0 19 -8t8 -19v-686q0 -11 -8 -19z" />
    <glyph glyph-name=".notdef" horiz-adv-x="290" 
 />
    <glyph glyph-name=".null" horiz-adv-x="0" 
 />
    <glyph glyph-name="nonmarkingreturn" unicode="&#xd;" horiz-adv-x="290" 
 />
    <glyph glyph-name="space" unicode=" " horiz-adv-x="212" 
 />
    <glyph glyph-name="A" unicode="A" 
d="M703 37q4 -10 4 -15q0 -9 -6.5 -15.5t-15.5 -6.5h-126q-17 0 -26.5 7.5t-12.5 17.5l-28 83h-266l-28 -83q-3 -10 -12.5 -17.5t-26.5 -7.5h-126q-9 0 -15.5 6.5t-6.5 15.5q0 5 4 15l218 630q5 14 16 23.5t29 9.5h162q18 0 29 -9.5t16 -23.5zM440 263l-81 240l-81 -240h162
z" />
    <glyph glyph-name="Aacute" unicode="&#xc1;" 
d="M703 37q4 -10 4 -15q0 -9 -6.5 -15.5t-15.5 -6.5h-126q-17 0 -26.5 7.5t-12.5 17.5l-28 83h-266l-28 -83q-3 -10 -12.5 -17.5t-26.5 -7.5h-126q-9 0 -15.5 6.5t-6.5 15.5q0 5 4 15l218 630q5 14 16 23.5t29 9.5h162q18 0 29 -9.5t16 -23.5zM440 263l-81 240l-81 -240h162
zM395 906.5q7 3.5 19 3.5h143q9 0 14 -5.5t5 -14.5q0 -7 -5 -12l-135 -111q-11 -9 -19.5 -13t-22.5 -4h-98q-16 0 -16 16q0 8 5 13l92 112q11 12 18 15.5z" />
    <glyph glyph-name="Abreve" unicode="&#x102;" 
d="M703 37q4 -10 4 -15q0 -9 -6.5 -15.5t-15.5 -6.5h-126q-17 0 -26.5 7.5t-12.5 17.5l-28 83h-266l-28 -83q-3 -10 -12.5 -17.5t-26.5 -7.5h-126q-9 0 -15.5 6.5t-6.5 15.5q0 5 4 15l218 630q5 14 16 23.5t29 9.5h162q18 0 29 -9.5t16 -23.5zM440 263l-81 240l-81 -240h162
zM195 904.5q5 5.5 14 5.5h84q9 0 14 -5.5t5 -13.5q0 -20 12.5 -35t34.5 -15t34.5 15t12.5 35q0 8 5 13.5t14 5.5h84q9 0 14 -5.5t5 -13.5q0 -35 -17.5 -68.5t-55.5 -55.5t-96 -22t-96 22t-55.5 55.5t-17.5 68.5q0 8 5 13.5z" />
    <glyph glyph-name="Acircumflex" unicode="&#xc2;" 
d="M703 37q4 -10 4 -15q0 -9 -6.5 -15.5t-15.5 -6.5h-126q-17 0 -26.5 7.5t-12.5 17.5l-28 83h-266l-28 -83q-3 -10 -12.5 -17.5t-26.5 -7.5h-126q-9 0 -15.5 6.5t-6.5 15.5q0 5 4 15l218 630q5 14 16 23.5t29 9.5h162q18 0 29 -9.5t16 -23.5zM440 263l-81 240l-81 -240h162
zM427 906q8 -4 18 -15l102 -112q5 -5 5 -13q0 -16 -16 -16h-72q-9 0 -16 3t-15 8l-74 43l-74 -43q-8 -5 -15 -8t-16 -3h-72q-16 0 -16 16q0 8 5 13l102 112q10 11 18 15t19 4h98q11 0 19 -4z" />
    <glyph glyph-name="Adieresis" unicode="&#xc4;" 
d="M703 37q4 -10 4 -15q0 -9 -6.5 -15.5t-15.5 -6.5h-126q-17 0 -26.5 7.5t-12.5 17.5l-28 83h-266l-28 -83q-3 -10 -12.5 -17.5t-26.5 -7.5h-126q-9 0 -15.5 6.5t-6.5 15.5q0 5 4 15l218 630q5 14 16 23.5t29 9.5h162q18 0 29 -9.5t16 -23.5zM440 263l-81 240l-81 -240h162
zM301 758q-8 -8 -19 -8h-101q-11 0 -19 8t-8 19v101q0 11 8 19t19 8h101q11 0 19 -8t8 -19v-101q0 -11 -8 -19zM556 758q-8 -8 -19 -8h-101q-11 0 -19 8t-8 19v101q0 11 8 19t19 8h101q11 0 19 -8t8 -19v-101q0 -11 -8 -19z" />
    <glyph glyph-name="Agrave" unicode="&#xc0;" 
d="M703 37q4 -10 4 -15q0 -9 -6.5 -15.5t-15.5 -6.5h-126q-17 0 -26.5 7.5t-12.5 17.5l-28 83h-266l-28 -83q-3 -10 -12.5 -17.5t-26.5 -7.5h-126q-9 0 -15.5 6.5t-6.5 15.5q0 5 4 15l218 630q5 14 16 23.5t29 9.5h162q18 0 29 -9.5t16 -23.5zM440 263l-81 240l-81 -240h162
zM440 766q0 -16 -16 -16h-98q-14 0 -22.5 4t-19.5 13l-135 111q-5 5 -5 12q0 9 5 14.5t14 5.5h143q12 0 19 -3.5t18 -15.5l92 -112q5 -5 5 -13z" />
    <glyph glyph-name="Amacron" unicode="&#x100;" 
d="M703 37q4 -10 4 -15q0 -9 -6.5 -15.5t-15.5 -6.5h-126q-17 0 -26.5 7.5t-12.5 17.5l-28 83h-266l-28 -83q-3 -10 -12.5 -17.5t-26.5 -7.5h-126q-9 0 -15.5 6.5t-6.5 15.5q0 5 4 15l218 630q5 14 16 23.5t29 9.5h162q18 0 29 -9.5t16 -23.5zM440 263l-81 240l-81 -240h162
zM181 758q-8 8 -8 19v86q0 11 8 19t19 8h319q11 0 19 -8t8 -19v-86q0 -11 -8 -19t-19 -8h-319q-11 0 -19 8z" />
    <glyph glyph-name="Aogonek" unicode="&#x104;" 
d="M703 37q4 -10 4 -15q0 -9 -6.5 -15.5t-15.5 -6.5h-15q-25 0 -39.5 -16t-14.5 -40t14.5 -40t39.5 -16h15q10 0 16 -6t6 -16v-64q0 -10 -6 -16t-16 -6h-19q-74 0 -118 45.5t-44 118.5q0 46 16 79v2l-28 83h-266l-28 -83q-3 -10 -12.5 -17.5t-26.5 -7.5h-126q-9 0 -15.5 6.5
t-6.5 15.5q0 5 4 15l218 630q5 14 16 23.5t29 9.5h162q18 0 29 -9.5t16 -23.5zM440 263l-81 240l-81 -240h162z" />
    <glyph glyph-name="Aring" unicode="&#xc5;" 
d="M703 37q4 -10 4 -15q0 -9 -6.5 -15.5t-15.5 -6.5h-126q-17 0 -26.5 7.5t-12.5 17.5l-28 83h-266l-28 -83q-3 -10 -12.5 -17.5t-26.5 -7.5h-126q-9 0 -15.5 6.5t-6.5 15.5q0 5 4 15l218 630q5 14 16 23.5t29 9.5h162q18 0 29 -9.5t16 -23.5zM440 263l-81 240l-81 -240h162
zM426.5 894.5q27.5 -25.5 27.5 -64.5t-27.5 -64.5t-67.5 -25.5t-67.5 25.5t-27.5 64.5t27.5 64.5t67.5 25.5t67.5 -25.5zM380.5 808.5q8.5 8.5 8.5 21.5t-8.5 21.5t-21.5 8.5t-21.5 -8.5t-8.5 -21.5t8.5 -21.5t21.5 -8.5t21.5 8.5z" />
    <glyph glyph-name="Atilde" unicode="&#xc3;" 
d="M703 37q4 -10 4 -15q0 -9 -6.5 -15.5t-15.5 -6.5h-126q-17 0 -26.5 7.5t-12.5 17.5l-28 83h-266l-28 -83q-3 -10 -12.5 -17.5t-26.5 -7.5h-126q-9 0 -15.5 6.5t-6.5 15.5q0 5 4 15l218 630q5 14 16 23.5t29 9.5h162q18 0 29 -9.5t16 -23.5zM440 263l-81 240l-81 -240h162
zM286 784.5q-6 -5.5 -12 -17.5q-5 -8 -9 -12.5t-10 -4.5h-76q-9 0 -14 5.5t-5 13.5q0 32 12.5 63.5t38 52t61.5 20.5q32 0 52 -7t43 -21q14 -9 24.5 -13t22.5 -4t18 5.5t12 17.5q5 8 9 12.5t10 4.5h76q9 0 14 -5.5t5 -13.5q0 -31 -14.5 -62.5t-40 -52.5t-57.5 -21t-52 7
t-43 21q-14 9 -24.5 13t-22.5 4t-18 -5.5z" />
    <glyph glyph-name="AE" unicode="&#xc6;" horiz-adv-x="1014" 
d="M953 692q8 -8 8 -19v-106q0 -11 -8 -19t-19 -8h-308v-108h286q11 0 19 -8t8 -19v-106q0 -11 -8 -19t-19 -8h-286v-112h316q11 0 19 -8t8 -19v-106q0 -11 -8 -19t-19 -8h-474q-11 0 -19 8t-8 19v81h-209l-37 -83q-15 -25 -39 -25h-128q-11 0 -19 8t-8 19q0 5 4 12l281 628
q9 16 18 24.5t27 8.5h603q11 0 19 -8zM441 263v277h-17l-123 -277h140z" />
    <glyph glyph-name="AEacute" unicode="&#x1fc;" horiz-adv-x="1014" 
d="M570 906.5q7 3.5 19 3.5h143q9 0 14 -5.5t5 -14.5q0 -7 -5 -12l-135 -111q-11 -9 -19.5 -13t-22.5 -4h-98q-16 0 -16 16q0 8 5 13l92 112q11 12 18 15.5zM953 692q8 -8 8 -19v-106q0 -11 -8 -19t-19 -8h-308v-108h286q11 0 19 -8t8 -19v-106q0 -11 -8 -19t-19 -8h-286
v-112h316q11 0 19 -8t8 -19v-106q0 -11 -8 -19t-19 -8h-474q-11 0 -19 8t-8 19v81h-209l-37 -83q-15 -25 -39 -25h-128q-11 0 -19 8t-8 19q0 5 4 12l281 628q9 16 18 24.5t27 8.5h603q11 0 19 -8zM441 263v277h-17l-123 -277h140z" />
    <glyph glyph-name="B" unicode="B" horiz-adv-x="712" 
d="M78 8q-8 8 -8 19v646q0 11 8 19t19 8h322q85 0 138 -30t76.5 -76.5t23.5 -101.5q0 -50 -17.5 -80.5t-38.5 -46.5q38 -26 54 -61.5t16 -86.5q0 -93 -56 -155t-175 -62h-343q-11 0 -19 8zM255 545v-114h155q30 0 45.5 15t15.5 42t-15.5 42t-45.5 15h-155zM420 155
q30 0 48 17t18 44t-18 44t-48 17h-165v-122h165z" />
    <glyph glyph-name="C" unicode="C" horiz-adv-x="702" 
d="M264.5 182q29.5 -32 92.5 -32q60 0 87 23t38 56q6 17 12 23t22 6h131q9 0 15.5 -6.5t6.5 -15.5q-1 -67 -42.5 -123.5t-112.5 -89.5t-157 -33q-93 0 -162 36.5t-107 98t-42 136.5q-2 48 -2 79q0 37 2 99q3 75 41 136.5t107.5 98t162.5 36.5q86 0 157 -33t112.5 -89.5
t42.5 -123.5q0 -9 -6.5 -15.5t-15.5 -6.5h-131q-16 0 -22 6t-12 23q-11 33 -38 56t-87 23q-63 0 -92.5 -32t-33.5 -84q-2 -34 -2 -84q0 -48 2 -84q4 -52 33.5 -84z" />
    <glyph glyph-name="Cacute" unicode="&#x106;" horiz-adv-x="702" 
d="M264.5 182q29.5 -32 92.5 -32q60 0 87 23t38 56q6 17 12 23t22 6h131q9 0 15.5 -6.5t6.5 -15.5q-1 -67 -42.5 -123.5t-112.5 -89.5t-157 -33q-93 0 -162 36.5t-107 98t-42 136.5q-2 48 -2 79q0 37 2 99q3 75 41 136.5t107.5 98t162.5 36.5q86 0 157 -33t112.5 -89.5
t42.5 -123.5q0 -9 -6.5 -15.5t-15.5 -6.5h-131q-16 0 -22 6t-12 23q-11 33 -38 56t-87 23q-63 0 -92.5 -32t-33.5 -84q-2 -34 -2 -84q0 -48 2 -84q4 -52 33.5 -84zM390 906.5q7 3.5 19 3.5h143q9 0 14 -5.5t5 -14.5q0 -7 -5 -12l-135 -111q-11 -9 -19.5 -13t-22.5 -4h-98
q-16 0 -16 16q0 8 5 13l92 112q11 12 18 15.5z" />
    <glyph glyph-name="Ccaron" unicode="&#x10c;" horiz-adv-x="702" 
d="M264.5 182q29.5 -32 92.5 -32q60 0 87 23t38 56q6 17 12 23t22 6h131q9 0 15.5 -6.5t6.5 -15.5q-1 -67 -42.5 -123.5t-112.5 -89.5t-157 -33q-93 0 -162 36.5t-107 98t-42 136.5q-2 48 -2 79q0 37 2 99q3 75 41 136.5t107.5 98t162.5 36.5q86 0 157 -33t112.5 -89.5
t42.5 -123.5q0 -9 -6.5 -15.5t-15.5 -6.5h-131q-16 0 -22 6t-12 23q-11 33 -38 56t-87 23q-63 0 -92.5 -32t-33.5 -84q-2 -34 -2 -84q0 -48 2 -84q4 -52 33.5 -84zM288 754q-8 4 -18 15l-102 112q-5 5 -5 13q0 16 16 16h72q9 0 16 -3t15 -8l74 -43l74 43q8 5 15 8t16 3h72
q16 0 16 -16q0 -8 -5 -13l-102 -112q-10 -11 -18 -15t-19 -4h-98q-11 0 -19 4z" />
    <glyph glyph-name="Ccedilla" unicode="&#xc7;" horiz-adv-x="702" 
d="M264.5 182q29.5 -32 92.5 -32q60 0 87 23t38 56q6 17 12 23t22 6h131q9 0 15.5 -6.5t6.5 -15.5q-1 -67 -42 -123.5t-111.5 -89.5t-156.5 -33l-21 -44q16 10 37 10q37 0 56.5 -25t19.5 -63q0 -37 -27.5 -62.5t-71.5 -25.5q-27 0 -54.5 13.5t-27.5 27.5q0 6 5 10l18 16
q8 8 15 8q4 0 16.5 -7t27.5 -7q33 0 33 27t-33 27q-6 0 -19.5 -3.5t-19.5 -3.5q-9 0 -15 6l-18 21l-5.5 7.5t-2.5 7.5q0 6 6 18l22 46q-76 11 -132.5 49t-87.5 94.5t-34 123.5q-2 48 -2 79q0 37 2 99q3 75 41 136.5t107.5 98t162.5 36.5q86 0 157 -33t112.5 -89.5
t42.5 -123.5q0 -9 -6.5 -15.5t-15.5 -6.5h-131q-16 0 -22 6t-12 23q-11 33 -38 56t-87 23q-63 0 -92.5 -32t-33.5 -84q-2 -34 -2 -84q0 -48 2 -84q4 -52 33.5 -84z" />
    <glyph glyph-name="Ccircumflex" unicode="&#x108;" horiz-adv-x="702" 
d="M264.5 182q29.5 -32 92.5 -32q60 0 87 23t38 56q6 17 12 23t22 6h131q9 0 15.5 -6.5t6.5 -15.5q-1 -67 -42.5 -123.5t-112.5 -89.5t-157 -33q-93 0 -162 36.5t-107 98t-42 136.5q-2 48 -2 79q0 37 2 99q3 75 41 136.5t107.5 98t162.5 36.5q86 0 157 -33t112.5 -89.5
t42.5 -123.5q0 -9 -6.5 -15.5t-15.5 -6.5h-131q-16 0 -22 6t-12 23q-11 33 -38 56t-87 23q-63 0 -92.5 -32t-33.5 -84q-2 -34 -2 -84q0 -48 2 -84q4 -52 33.5 -84zM424 906q8 -4 18 -15l102 -112q5 -5 5 -13q0 -16 -16 -16h-72q-9 0 -16 3t-15 8l-74 43l-74 -43
q-8 -5 -15 -8t-16 -3h-72q-16 0 -16 16q0 8 5 13l102 112q10 11 18 15t19 4h98q11 0 19 -4z" />
    <glyph glyph-name="Cdotaccent" unicode="&#x10a;" horiz-adv-x="702" 
d="M264.5 182q29.5 -32 92.5 -32q60 0 87 23t38 56q6 17 12 23t22 6h131q9 0 15.5 -6.5t6.5 -15.5q-1 -67 -42.5 -123.5t-112.5 -89.5t-157 -33q-93 0 -162 36.5t-107 98t-42 136.5q-2 48 -2 79q0 37 2 99q3 75 41 136.5t107.5 98t162.5 36.5q86 0 157 -33t112.5 -89.5
t42.5 -123.5q0 -9 -6.5 -15.5t-15.5 -6.5h-131q-16 0 -22 6t-12 23q-11 33 -38 56t-87 23q-63 0 -92.5 -32t-33.5 -84q-2 -34 -2 -84q0 -48 2 -84q4 -52 33.5 -84zM431 758q-8 -8 -19 -8h-111q-11 0 -19 8t-8 19v111q0 11 8 19t19 8h111q11 0 19 -8t8 -19v-111q0 -11 -8 -19
z" />
    <glyph glyph-name="D" unicode="D" horiz-adv-x="723" 
d="M680 349q0 -16 -2 -70q-3 -82 -42.5 -145t-108.5 -98.5t-160 -35.5h-270q-11 0 -19 8t-8 19v646q0 11 8 19t19 8h265q91 0 161.5 -35.5t111 -99t43.5 -144.5q2 -56 2 -72zM255 540v-380h107q126 0 131 115q2 58 2 76q0 20 -2 74q-3 57 -37.5 86t-98.5 29h-102z" />
    <glyph glyph-name="Eth" unicode="&#xd0;" horiz-adv-x="755" 
d="M712 349q0 -16 -2 -70q-3 -82 -42.5 -145t-108.5 -98.5t-160 -35.5h-270q-11 0 -19 8t-8 19v257h-53q-11 0 -19 8t-8 19v86q0 11 8 19t19 8h53v249q0 11 8 19t19 8h265q91 0 161.5 -35.5t111 -99t43.5 -144.5q2 -56 2 -72zM287 540v-116h75q11 0 19 -8t8 -19v-86
q0 -11 -8 -19t-19 -8h-75v-124h107q126 0 131 115q2 58 2 76q0 20 -2 74q-3 57 -37.5 86t-98.5 29h-102z" />
    <glyph glyph-name="Dcaron" unicode="&#x10e;" horiz-adv-x="723" 
d="M680 349q0 -16 -2 -70q-3 -82 -42.5 -145t-108.5 -98.5t-160 -35.5h-270q-11 0 -19 8t-8 19v646q0 11 8 19t19 8h265q91 0 161.5 -35.5t111 -99t43.5 -144.5q2 -56 2 -72zM255 540v-380h107q126 0 131 115q2 58 2 76q0 20 -2 74q-3 57 -37.5 86t-98.5 29h-102zM277 754
q-8 4 -18 15l-102 112q-5 5 -5 13q0 16 16 16h72q9 0 16 -3t15 -8l74 -43l74 43q8 5 15 8t16 3h72q16 0 16 -16q0 -8 -5 -13l-102 -112q-10 -11 -18 -15t-19 -4h-98q-11 0 -19 4z" />
    <glyph glyph-name="Dcroat" unicode="&#x110;" horiz-adv-x="755" 
d="M712 349q0 -16 -2 -70q-3 -82 -42.5 -145t-108.5 -98.5t-160 -35.5h-270q-11 0 -19 8t-8 19v257h-53q-11 0 -19 8t-8 19v86q0 11 8 19t19 8h53v249q0 11 8 19t19 8h265q91 0 161.5 -35.5t111 -99t43.5 -144.5q2 -56 2 -72zM287 540v-116h75q11 0 19 -8t8 -19v-86
q0 -11 -8 -19t-19 -8h-75v-124h107q126 0 131 115q2 58 2 76q0 20 -2 74q-3 57 -37.5 86t-98.5 29h-102z" />
    <glyph glyph-name="E" unicode="E" horiz-adv-x="643" 
d="M255 272h286q11 0 19 8t8 19v106q0 11 -8 19t-19 8h-286v108h308q11 0 19 8t8 19v106q0 11 -8 19t-19 8h-466q-11 0 -19 -8t-8 -19v-646q0 -11 8 -19t19 -8h474q11 0 19 8t8 19v106q0 11 -8 19t-19 8h-316v112z" />
    <glyph glyph-name="Eacute" unicode="&#xc9;" horiz-adv-x="643" 
d="M255 272h286q11 0 19 8t8 19v106q0 11 -8 19t-19 8h-286v108h308q11 0 19 8t8 19v106q0 11 -8 19t-19 8h-466q-11 0 -19 -8t-8 -19v-646q0 -11 8 -19t19 -8h474q11 0 19 8t8 19v106q0 11 -8 19t-19 8h-316v112zM372 906.5q7 3.5 19 3.5h143q9 0 14 -5.5t5 -14.5
q0 -7 -5 -12l-135 -111q-11 -9 -19.5 -13t-22.5 -4h-98q-16 0 -16 16q0 8 5 13l92 112q11 12 18 15.5z" />
    <glyph glyph-name="Ebreve" unicode="&#x114;" horiz-adv-x="643" 
d="M255 272h286q11 0 19 8t8 19v106q0 11 -8 19t-19 8h-286v108h308q11 0 19 8t8 19v106q0 11 -8 19t-19 8h-466q-11 0 -19 -8t-8 -19v-646q0 -11 8 -19t19 -8h474q11 0 19 8t8 19v106q0 11 -8 19t-19 8h-316v112zM170 904.5q5 5.5 14 5.5h84q9 0 14 -5.5t5 -13.5
q0 -20 12.5 -35t34.5 -15t34.5 15t12.5 35q0 8 5 13.5t14 5.5h84q9 0 14 -5.5t5 -13.5q0 -35 -17.5 -68.5t-55.5 -55.5t-96 -22t-96 22t-55.5 55.5t-17.5 68.5q0 8 5 13.5z" />
    <glyph glyph-name="Ecaron" unicode="&#x11a;" horiz-adv-x="643" 
d="M255 272h286q11 0 19 8t8 19v106q0 11 -8 19t-19 8h-286v108h308q11 0 19 8t8 19v106q0 11 -8 19t-19 8h-466q-11 0 -19 -8t-8 -19v-646q0 -11 8 -19t19 -8h474q11 0 19 8t8 19v106q0 11 -8 19t-19 8h-316v112zM266 754q-8 4 -18 15l-102 112q-5 5 -5 13q0 16 16 16h72
q9 0 16 -3t15 -8l74 -43l74 43q8 5 15 8t16 3h72q16 0 16 -16q0 -8 -5 -13l-102 -112q-10 -11 -18 -15t-19 -4h-98q-11 0 -19 4z" />
    <glyph glyph-name="Ecircumflex" unicode="&#xca;" horiz-adv-x="643" 
d="M255 272h286q11 0 19 8t8 19v106q0 11 -8 19t-19 8h-286v108h308q11 0 19 8t8 19v106q0 11 -8 19t-19 8h-466q-11 0 -19 -8t-8 -19v-646q0 -11 8 -19t19 -8h474q11 0 19 8t8 19v106q0 11 -8 19t-19 8h-316v112zM402 906q8 -4 18 -15l102 -112q5 -5 5 -13q0 -16 -16 -16
h-72q-9 0 -16 3t-15 8l-74 43l-74 -43q-8 -5 -15 -8t-16 -3h-72q-16 0 -16 16q0 8 5 13l102 112q10 11 18 15t19 4h98q11 0 19 -4z" />
    <glyph glyph-name="Edieresis" unicode="&#xcb;" horiz-adv-x="643" 
d="M255 272h286q11 0 19 8t8 19v106q0 11 -8 19t-19 8h-286v108h308q11 0 19 8t8 19v106q0 11 -8 19t-19 8h-466q-11 0 -19 -8t-8 -19v-646q0 -11 8 -19t19 -8h474q11 0 19 8t8 19v106q0 11 -8 19t-19 8h-316v112zM276 758q-8 -8 -19 -8h-101q-11 0 -19 8t-8 19v101
q0 11 8 19t19 8h101q11 0 19 -8t8 -19v-101q0 -11 -8 -19zM531 758q-8 -8 -19 -8h-101q-11 0 -19 8t-8 19v101q0 11 8 19t19 8h101q11 0 19 -8t8 -19v-101q0 -11 -8 -19z" />
    <glyph glyph-name="Edotaccent" unicode="&#x116;" horiz-adv-x="643" 
d="M255 272h286q11 0 19 8t8 19v106q0 11 -8 19t-19 8h-286v108h308q11 0 19 8t8 19v106q0 11 -8 19t-19 8h-466q-11 0 -19 -8t-8 -19v-646q0 -11 8 -19t19 -8h474q11 0 19 8t8 19v106q0 11 -8 19t-19 8h-316v112zM409 758q-8 -8 -19 -8h-111q-11 0 -19 8t-8 19v111
q0 11 8 19t19 8h111q11 0 19 -8t8 -19v-111q0 -11 -8 -19z" />
    <glyph glyph-name="Egrave" unicode="&#xc8;" horiz-adv-x="643" 
d="M255 272h286q11 0 19 8t8 19v106q0 11 -8 19t-19 8h-286v108h308q11 0 19 8t8 19v106q0 11 -8 19t-19 8h-466q-11 0 -19 -8t-8 -19v-646q0 -11 8 -19t19 -8h474q11 0 19 8t8 19v106q0 11 -8 19t-19 8h-316v112zM410 766q0 -16 -16 -16h-98q-14 0 -22.5 4t-19.5 13
l-135 111q-5 5 -5 12q0 9 5 14.5t14 5.5h143q12 0 19 -3.5t18 -15.5l92 -112q5 -5 5 -13z" />
    <glyph glyph-name="Emacron" unicode="&#x112;" horiz-adv-x="643" 
d="M255 272h286q11 0 19 8t8 19v106q0 11 -8 19t-19 8h-286v108h308q11 0 19 8t8 19v106q0 11 -8 19t-19 8h-466q-11 0 -19 -8t-8 -19v-646q0 -11 8 -19t19 -8h474q11 0 19 8t8 19v106q0 11 -8 19t-19 8h-316v112zM156 758q-8 8 -8 19v86q0 11 8 19t19 8h319q11 0 19 -8
t8 -19v-86q0 -11 -8 -19t-19 -8h-319q-11 0 -19 8z" />
    <glyph glyph-name="Eogonek" unicode="&#x118;" horiz-adv-x="643" 
d="M439 -174.5q-44 45.5 -44 118.5q0 29 8 56h-306q-11 0 -19 8t-8 19v646q0 11 8 19t19 8h466q11 0 19 -8t8 -19v-106q0 -11 -8 -19t-19 -8h-308v-108h286q11 0 19 -8t8 -19v-106q0 -11 -8 -19t-19 -8h-286v-112h316q11 0 19 -8t8 -19v-106q0 -11 -8 -19t-19 -8h-15
q-22 0 -35.5 -16.5t-13.5 -39.5q0 -24 14.5 -40t39.5 -16h15q10 0 16 -6t6 -16v-64q0 -10 -6 -16t-16 -6h-19q-74 0 -118 45.5z" />
    <glyph glyph-name="F" unicode="F" horiz-adv-x="617" 
d="M573 692q8 -8 8 -19v-106q0 -11 -8 -19t-19 -8h-299v-137h279q11 0 19 -8t8 -19v-106q0 -11 -8 -19t-19 -8h-279v-216q0 -11 -8 -19t-19 -8h-131q-11 0 -19 8t-8 19v646q0 11 8 19t19 8h457q11 0 19 -8z" />
    <glyph glyph-name="G" unicode="G" horiz-adv-x="711" 
d="M228 357q0 -62 3 -91q4 -51 34 -83.5t92 -32.5q57 0 91.5 26.5t34.5 83.5h-84q-11 0 -19 8t-8 19v106q0 11 8 19t19 8h242q11 0 19 -8t8 -19v-128q0 -83 -41 -145.5t-111.5 -96t-158.5 -33.5q-93 0 -162 36.5t-107 98t-42 136.5q-2 48 -2 79q0 37 2 99q3 75 41 136.5
t107.5 98t162.5 36.5q89 0 157.5 -33t107 -83t41.5 -97q1 -9 -6 -15.5t-16 -6.5h-133q-13 0 -20.5 6.5t-19.5 20.5q-18 22 -42.5 35t-68.5 13q-113 0 -126 -116q-3 -24 -3 -77z" />
    <glyph glyph-name="Gbreve" unicode="&#x11e;" horiz-adv-x="711" 
d="M228 357q0 -62 3 -91q4 -51 34 -83.5t92 -32.5q57 0 91.5 26.5t34.5 83.5h-84q-11 0 -19 8t-8 19v106q0 11 8 19t19 8h242q11 0 19 -8t8 -19v-128q0 -83 -41 -145.5t-111.5 -96t-158.5 -33.5q-93 0 -162 36.5t-107 98t-42 136.5q-2 48 -2 79q0 37 2 99q3 75 41 136.5
t107.5 98t162.5 36.5q89 0 157.5 -33t107 -83t41.5 -97q1 -9 -6 -15.5t-16 -6.5h-133q-13 0 -20.5 6.5t-19.5 20.5q-18 22 -42.5 35t-68.5 13q-113 0 -126 -116q-3 -24 -3 -77zM191 904.5q5 5.5 14 5.5h84q9 0 14 -5.5t5 -13.5q0 -20 12.5 -35t34.5 -15t34.5 15t12.5 35
q0 8 5 13.5t14 5.5h84q9 0 14 -5.5t5 -13.5q0 -35 -17.5 -68.5t-55.5 -55.5t-96 -22t-96 22t-55.5 55.5t-17.5 68.5q0 8 5 13.5z" />
    <glyph glyph-name="Gcircumflex" unicode="&#x11c;" horiz-adv-x="711" 
d="M228 357q0 -62 3 -91q4 -51 34 -83.5t92 -32.5q57 0 91.5 26.5t34.5 83.5h-84q-11 0 -19 8t-8 19v106q0 11 8 19t19 8h242q11 0 19 -8t8 -19v-128q0 -83 -41 -145.5t-111.5 -96t-158.5 -33.5q-93 0 -162 36.5t-107 98t-42 136.5q-2 48 -2 79q0 37 2 99q3 75 41 136.5
t107.5 98t162.5 36.5q89 0 157.5 -33t107 -83t41.5 -97q1 -9 -6 -15.5t-16 -6.5h-133q-13 0 -20.5 6.5t-19.5 20.5q-18 22 -42.5 35t-68.5 13q-113 0 -126 -116q-3 -24 -3 -77zM423 906q8 -4 18 -15l102 -112q5 -5 5 -13q0 -16 -16 -16h-72q-9 0 -16 3t-15 8l-74 43l-74 -43
q-8 -5 -15 -8t-16 -3h-72q-16 0 -16 16q0 8 5 13l102 112q10 11 18 15t19 4h98q11 0 19 -4z" />
    <glyph glyph-name="Gcommaaccent" unicode="&#x122;" horiz-adv-x="711" 
d="M228 357q0 -62 3 -91q4 -51 34 -83.5t92 -32.5q57 0 91.5 26.5t34.5 83.5h-84q-11 0 -19 8t-8 19v106q0 11 8 19t19 8h242q11 0 19 -8t8 -19v-128q0 -83 -41 -145.5t-111.5 -96t-158.5 -33.5q-93 0 -162 36.5t-107 98t-42 136.5q-2 48 -2 79q0 37 2 99q3 75 41 136.5
t107.5 98t162.5 36.5q89 0 157.5 -33t107 -83t41.5 -97q1 -9 -6 -15.5t-16 -6.5h-133q-13 0 -20.5 6.5t-19.5 20.5q-18 22 -42.5 35t-68.5 13q-113 0 -126 -116q-3 -24 -3 -77zM276.5 -61.5q10.5 11.5 29.5 11.5h123q9 0 15.5 -6.5t6.5 -15.5q0 -4 -1 -7l-55 -139
q-12 -32 -43 -32h-89q-9 0 -15.5 6.5t-6.5 15.5v2l22 137q3 16 13.5 27.5z" />
    <glyph glyph-name="Gdotaccent" unicode="&#x120;" horiz-adv-x="711" 
d="M228 357q0 -62 3 -91q4 -51 34 -83.5t92 -32.5q57 0 91.5 26.5t34.5 83.5h-84q-11 0 -19 8t-8 19v106q0 11 8 19t19 8h242q11 0 19 -8t8 -19v-128q0 -83 -41 -145.5t-111.5 -96t-158.5 -33.5q-93 0 -162 36.5t-107 98t-42 136.5q-2 48 -2 79q0 37 2 99q3 75 41 136.5
t107.5 98t162.5 36.5q89 0 157.5 -33t107 -83t41.5 -97q1 -9 -6 -15.5t-16 -6.5h-133q-13 0 -20.5 6.5t-19.5 20.5q-18 22 -42.5 35t-68.5 13q-113 0 -126 -116q-3 -24 -3 -77zM430 758q-8 -8 -19 -8h-111q-11 0 -19 8t-8 19v111q0 11 8 19t19 8h111q11 0 19 -8t8 -19v-111
q0 -11 -8 -19z" />
    <glyph glyph-name="H" unicode="H" horiz-adv-x="732" 
d="M654 692q8 -8 8 -19v-646q0 -11 -8 -19t-19 -8h-131q-11 0 -19 8t-8 19v245h-222v-245q0 -11 -8 -19t-19 -8h-131q-11 0 -19 7.5t-8 19.5v646q0 11 8 19t19 8h131q11 0 19 -8t8 -19v-241h222v241q0 11 8 19t19 8h131q11 0 19 -8z" />
    <glyph glyph-name="Hbar" unicode="&#x126;" horiz-adv-x="732" 
d="M654 692q8 -8 8 -19v-646q0 -11 -8 -19t-19 -8h-131q-11 0 -19 8t-8 19v245h-222v-245q0 -11 -8 -19t-19 -8h-131q-11 0 -19 7.5t-8 19.5v646q0 11 8 19t19 8h131q11 0 19 -8t8 -19v-39h222v39q0 11 8 19t19 8h131q11 0 19 -8zM477 499h-222v-67h222v67z" />
    <glyph glyph-name="Hcircumflex" unicode="&#x124;" horiz-adv-x="732" 
d="M654 692q8 -8 8 -19v-646q0 -11 -8 -19t-19 -8h-131q-11 0 -19 8t-8 19v245h-222v-245q0 -11 -8 -19t-19 -8h-131q-11 0 -19 7.5t-8 19.5v646q0 11 8 19t19 8h131q11 0 19 -8t8 -19v-241h222v241q0 11 8 19t19 8h131q11 0 19 -8zM434 906q8 -4 18 -15l102 -112
q5 -5 5 -13q0 -16 -16 -16h-72q-9 0 -16 3t-15 8l-74 43l-74 -43q-8 -5 -15 -8t-16 -3h-72q-16 0 -16 16q0 8 5 13l102 112q10 11 18 15t19 4h98q11 0 19 -4z" />
    <glyph glyph-name="I" unicode="I" horiz-adv-x="325" 
d="M78 8q-8 8 -8 19v646q0 11 8 19t19 8h131q11 0 19 -8t8 -19v-646q0 -11 -8 -19t-19 -8h-131q-11 0 -19 8z" />
    <glyph glyph-name="IJ" unicode="&#x132;" horiz-adv-x="724" 
d="M78 8q-8 8 -8 19v646q0 11 8 19t19 8h131q11 0 19 -8t8 -19v-646q0 -11 -8 -19t-19 -8h-131q-11 0 -19 8zM633 700q11 0 19 -8t8 -19v-418q0 -85 -40 -144.5t-108 -90t-150 -30.5q-11 0 -19 8t-8 19v106q0 11 8 19t19 8q56 0 85 28.5t29 82.5v412q0 11 8 19t19 8h130z
" />
    <glyph glyph-name="Iacute" unicode="&#xcd;" horiz-adv-x="325" 
d="M78 8q-8 8 -8 19v646q0 11 8 19t19 8h131q11 0 19 -8t8 -19v-646q0 -11 -8 -19t-19 -8h-131q-11 0 -19 8zM200 906.5q7 3.5 19 3.5h143q9 0 14 -5.5t5 -14.5q0 -7 -5 -12l-135 -111q-11 -9 -19.5 -13t-22.5 -4h-98q-16 0 -16 16q0 8 5 13l92 112q11 12 18 15.5z" />
    <glyph glyph-name="Ibreve" unicode="&#x12c;" horiz-adv-x="325" 
d="M78 8q-8 8 -8 19v646q0 11 8 19t19 8h131q11 0 19 -8t8 -19v-646q0 -11 -8 -19t-19 -8h-131q-11 0 -19 8zM-2 904.5q5 5.5 14 5.5h84q9 0 14 -5.5t5 -13.5q0 -20 12.5 -35t34.5 -15t34.5 15t12.5 35q0 8 5 13.5t14 5.5h84q9 0 14 -5.5t5 -13.5q0 -35 -17.5 -68.5
t-55.5 -55.5t-96 -22t-96 22t-55.5 55.5t-17.5 68.5q0 8 5 13.5z" />
    <glyph glyph-name="Icircumflex" unicode="&#xce;" horiz-adv-x="325" 
d="M78 8q-8 8 -8 19v646q0 11 8 19t19 8h131q11 0 19 -8t8 -19v-646q0 -11 -8 -19t-19 -8h-131q-11 0 -19 8zM230 906q8 -4 18 -15l102 -112q5 -5 5 -13q0 -16 -16 -16h-72q-9 0 -16 3t-15 8l-74 43l-74 -43q-8 -5 -15 -8t-16 -3h-72q-16 0 -16 16q0 8 5 13l102 112
q10 11 18 15t19 4h98q11 0 19 -4z" />
    <glyph glyph-name="Idieresis" unicode="&#xcf;" horiz-adv-x="325" 
d="M78 8q-8 8 -8 19v646q0 11 8 19t19 8h131q11 0 19 -8t8 -19v-646q0 -11 -8 -19t-19 -8h-131q-11 0 -19 8zM104 758q-8 -8 -19 -8h-101q-11 0 -19 8t-8 19v101q0 11 8 19t19 8h101q11 0 19 -8t8 -19v-101q0 -11 -8 -19zM359 758q-8 -8 -19 -8h-101q-11 0 -19 8t-8 19v101
q0 11 8 19t19 8h101q11 0 19 -8t8 -19v-101q0 -11 -8 -19z" />
    <glyph glyph-name="Idotaccent" unicode="&#x130;" horiz-adv-x="325" 
d="M78 8q-8 8 -8 19v646q0 11 8 19t19 8h131q11 0 19 -8t8 -19v-646q0 -11 -8 -19t-19 -8h-131q-11 0 -19 8zM237 758q-8 -8 -19 -8h-111q-11 0 -19 8t-8 19v111q0 11 8 19t19 8h111q11 0 19 -8t8 -19v-111q0 -11 -8 -19z" />
    <glyph glyph-name="Igrave" unicode="&#xcc;" horiz-adv-x="325" 
d="M78 8q-8 8 -8 19v646q0 11 8 19t19 8h131q11 0 19 -8t8 -19v-646q0 -11 -8 -19t-19 -8h-131q-11 0 -19 8zM239 766q0 -16 -16 -16h-98q-14 0 -22.5 4t-19.5 13l-135 111q-5 5 -5 12q0 9 5 14.5t14 5.5h143q12 0 19 -3.5t18 -15.5l92 -112q5 -5 5 -13z" />
    <glyph glyph-name="Imacron" unicode="&#x12a;" horiz-adv-x="325" 
d="M78 8q-8 8 -8 19v646q0 11 8 19t19 8h131q11 0 19 -8t8 -19v-646q0 -11 -8 -19t-19 -8h-131q-11 0 -19 8zM-16 758q-8 8 -8 19v86q0 11 8 19t19 8h319q11 0 19 -8t8 -19v-86q0 -11 -8 -19t-19 -8h-319q-11 0 -19 8z" />
    <glyph glyph-name="Iogonek" unicode="&#x12e;" horiz-adv-x="325" 
d="M178.5 -16q-14.5 -16 -14.5 -40t14.5 -40t39.5 -16h15q10 0 16 -6t6 -16v-64q0 -10 -6 -16t-16 -6h-19q-74 0 -118 45.5t-44 118.5q0 46 18 82v647q0 11 8 19t19 8h131q11 0 19 -8t8 -19v-646q0 -11 -8 -19t-19 -8h-10q-25 0 -39.5 -16z" />
    <glyph glyph-name="Itilde" unicode="&#x128;" horiz-adv-x="325" 
d="M78 8q-8 8 -8 19v646q0 11 8 19t19 8h131q11 0 19 -8t8 -19v-646q0 -11 -8 -19t-19 -8h-131q-11 0 -19 8zM89 784.5q-6 -5.5 -12 -17.5q-5 -8 -9 -12.5t-10 -4.5h-76q-9 0 -14 5.5t-5 13.5q0 32 12.5 63.5t38 52t61.5 20.5q32 0 52 -7t43 -21q14 -9 24.5 -13t22.5 -4
t18 5.5t12 17.5q5 8 9 12.5t10 4.5h76q9 0 14 -5.5t5 -13.5q0 -31 -14.5 -62.5t-40 -52.5t-57.5 -21t-52 7t-43 21q-14 9 -24.5 13t-22.5 4t-18 -5.5z" />
    <glyph glyph-name="J" unicode="J" horiz-adv-x="685" 
d="M581 110.5q-40 -59.5 -108 -90t-150 -30.5q-85 0 -152.5 29t-106 83t-39.5 124q0 9 6.5 15.5t15.5 6.5h128q18 0 24.5 -5.5t12.5 -23.5q12 -35 38 -52t73 -17q56 0 85 28.5t29 82.5v279h-342q-11 0 -19 8t-8 19v106q0 11 8 19t19 8h499q11 0 19 -8t8 -19v-418
q0 -85 -40 -144.5z" />
    <glyph glyph-name="Jcircumflex" unicode="&#x134;" horiz-adv-x="685" 
d="M581 110.5q-40 -59.5 -108 -90t-150 -30.5q-85 0 -152.5 29t-106 83t-39.5 124q0 9 6.5 15.5t15.5 6.5h128q18 0 24.5 -5.5t12.5 -23.5q12 -35 38 -52t73 -17q56 0 85 28.5t29 82.5v279h-342q-11 0 -19 8t-8 19v106q0 11 8 19t19 8h499q11 0 19 -8t8 -19v-418
q0 -85 -40 -144.5zM421 906q8 -4 18 -15l102 -112q5 -5 5 -13q0 -16 -16 -16h-72q-9 0 -16 3t-15 8l-74 43l-74 -43q-8 -5 -15 -8t-16 -3h-72q-16 0 -16 16q0 8 5 13l102 112q10 11 18 15t19 4h98q11 0 19 -4z" />
    <glyph glyph-name="K" unicode="K" horiz-adv-x="673" 
d="M666 22q0 -9 -6.5 -15.5t-15.5 -6.5h-159q-13 0 -22 5.5t-19 17.5l-189 238v-234q0 -11 -8 -19t-19 -8h-131q-11 0 -19 8t-8 19v646q0 11 8 19t19 8h131q11 0 19 -8t8 -19v-211l176 216q8 10 16 16t24 6h156q9 0 15.5 -6.5t6.5 -15.5q0 -6 -3 -11l-247 -302l264 -332
q3 -4 3 -11z" />
    <glyph glyph-name="Kcommaaccent" unicode="&#x136;" horiz-adv-x="673" 
d="M666 22q0 -9 -6.5 -15.5t-15.5 -6.5h-159q-13 0 -22 5.5t-19 17.5l-189 238v-234q0 -11 -8 -19t-19 -8h-131q-11 0 -19 8t-8 19v646q0 11 8 19t19 8h131q11 0 19 -8t8 -19v-211l176 216q8 10 16 16t24 6h156q9 0 15.5 -6.5t6.5 -15.5q0 -6 -3 -11l-247 -302l264 -332
q3 -4 3 -11zM274.5 -61.5q10.5 11.5 29.5 11.5h123q9 0 15.5 -6.5t6.5 -15.5q0 -4 -1 -7l-55 -139q-12 -32 -43 -32h-89q-9 0 -15.5 6.5t-6.5 15.5v2l22 137q3 16 13.5 27.5z" />
    <glyph glyph-name="L" unicode="L" horiz-adv-x="603" 
d="M579 152q8 -8 8 -19v-106q0 -11 -8 -19t-19 -8h-463q-11 0 -19 8t-8 19v646q0 11 8 19t19 8h131q11 0 19 -8t8 -19v-513h305q11 0 19 -8z" />
    <glyph glyph-name="Lacute" unicode="&#x139;" horiz-adv-x="603" 
d="M579 152q8 -8 8 -19v-106q0 -11 -8 -19t-19 -8h-463q-11 0 -19 8t-8 19v646q0 11 8 19t19 8h131q11 0 19 -8t8 -19v-513h305q11 0 19 -8zM202 906.5q7 3.5 19 3.5h143q9 0 14 -5.5t5 -14.5q0 -7 -5 -12l-135 -111q-11 -9 -19.5 -13t-22.5 -4h-98q-16 0 -16 16q0 8 5 13
l92 112q11 12 18 15.5z" />
    <glyph glyph-name="Lcaron" unicode="&#x13d;" horiz-adv-x="604" 
d="M579 152q8 -8 8 -19v-106q0 -11 -8 -19t-19 -8h-463q-11 0 -19 8t-8 19v646q0 11 8 19t19 8h131q11 0 19 -8t8 -19v-513h305q11 0 19 -8zM361.5 698.5q10.5 11.5 29.5 11.5h123q9 0 15.5 -6.5t6.5 -15.5q0 -4 -1 -7l-55 -139q-12 -32 -43 -32h-89q-9 0 -15.5 6.5
t-6.5 15.5v2l22 137q3 16 13.5 27.5z" />
    <glyph glyph-name="Lcommaaccent" unicode="&#x13b;" horiz-adv-x="603" 
d="M579 152q8 -8 8 -19v-106q0 -11 -8 -19t-19 -8h-463q-11 0 -19 8t-8 19v646q0 11 8 19t19 8h131q11 0 19 -8t8 -19v-513h305q11 0 19 -8zM251.5 -61.5q10.5 11.5 29.5 11.5h123q9 0 15.5 -6.5t6.5 -15.5q0 -4 -1 -7l-55 -139q-12 -32 -43 -32h-89q-9 0 -15.5 6.5
t-6.5 15.5v2l22 137q3 16 13.5 27.5z" />
    <glyph glyph-name="Ldot" unicode="&#x13f;" horiz-adv-x="604" 
d="M579 152q8 -8 8 -19v-106q0 -11 -8 -19t-19 -8h-463q-11 0 -19 8t-8 19v646q0 11 8 19t19 8h131q11 0 19 -8t8 -19v-513h305q11 0 19 -8zM499 315q-8 -8 -19 -8h-131q-11 0 -19 8t-8 19v131q0 11 8 19t19 8h131q11 0 19 -8t8 -19v-131q0 -11 -8 -19z" />
    <glyph glyph-name="Lslash" unicode="&#x141;" horiz-adv-x="610" 
d="M586 152q8 -8 8 -19v-106q0 -11 -8 -19t-19 -8h-463q-11 0 -19 8t-8 19v225l-28 -11q-8 -3 -11 -3q-9 0 -15 6t-6 15v58q0 14 5 21.5t17 11.5l38 15v308q0 11 8 19t19 8h131q11 0 19 -8t8 -19v-236l134 53q7 3 11 3q9 0 15 -6t6 -15v-58q0 -13 -5 -20.5t-17 -12.5
l-144 -57v-164h305q11 0 19 -8z" />
    <glyph glyph-name="M" unicode="M" horiz-adv-x="836" 
d="M255 358v-331q0 -11 -8 -19t-19 -8h-131q-11 0 -19 8t-8 19v646q0 11 8 19t19 8h116q28 0 43 -27l162 -277l162 277q15 27 43 27h116q11 0 19 -8t8 -19v-646q0 -11 -8 -19t-19 -8h-131q-11 0 -19 8t-8 19v331l-94 -165q-7 -11 -15.5 -18t-21.5 -7h-64q-13 0 -21.5 7
t-15.5 18z" />
    <glyph glyph-name="N" unicode="N" horiz-adv-x="726" 
d="M499 7.5q-11 7.5 -15 15.5l-229 342v-338q0 -11 -8 -19t-19 -8h-131q-11 0 -19 8t-8 19v646q0 11 8 19t19 8h104q15 0 26 -7.5t15 -15.5l229 -342v338q0 11 8 19t19 8h131q11 0 19 -8t8 -19v-646q0 -11 -8 -19t-19 -8h-104q-15 0 -26 7.5z" />
    <glyph glyph-name="Nacute" unicode="&#x143;" horiz-adv-x="726" 
d="M499 7.5q-11 7.5 -15 15.5l-229 342v-338q0 -11 -8 -19t-19 -8h-131q-11 0 -19 8t-8 19v646q0 11 8 19t19 8h104q15 0 26 -7.5t15 -15.5l229 -342v338q0 11 8 19t19 8h131q11 0 19 -8t8 -19v-646q0 -11 -8 -19t-19 -8h-104q-15 0 -26 7.5zM405 906.5q7 3.5 19 3.5h143
q9 0 14 -5.5t5 -14.5q0 -7 -5 -12l-135 -111q-11 -9 -19.5 -13t-22.5 -4h-98q-16 0 -16 16q0 8 5 13l92 112q11 12 18 15.5z" />
    <glyph glyph-name="Ncaron" unicode="&#x147;" horiz-adv-x="726" 
d="M499 7.5q-11 7.5 -15 15.5l-229 342v-338q0 -11 -8 -19t-19 -8h-131q-11 0 -19 8t-8 19v646q0 11 8 19t19 8h104q15 0 26 -7.5t15 -15.5l229 -342v338q0 11 8 19t19 8h131q11 0 19 -8t8 -19v-646q0 -11 -8 -19t-19 -8h-104q-15 0 -26 7.5zM295 754q-8 4 -18 15l-102 112
q-5 5 -5 13q0 16 16 16h72q9 0 16 -3t15 -8l74 -43l74 43q8 5 15 8t16 3h72q16 0 16 -16q0 -8 -5 -13l-102 -112q-10 -11 -18 -15t-19 -4h-98q-11 0 -19 4z" />
    <glyph glyph-name="Ncommaaccent" unicode="&#x145;" horiz-adv-x="726" 
d="M499 7.5q-11 7.5 -15 15.5l-229 342v-338q0 -11 -8 -19t-19 -8h-131q-11 0 -19 8t-8 19v646q0 11 8 19t19 8h104q15 0 26 -7.5t15 -15.5l229 -342v338q0 11 8 19t19 8h131q11 0 19 -8t8 -19v-646q0 -11 -8 -19t-19 -8h-104q-15 0 -26 7.5zM282.5 -61.5
q10.5 11.5 29.5 11.5h123q9 0 15.5 -6.5t6.5 -15.5q0 -4 -1 -7l-55 -139q-12 -32 -43 -32h-89q-9 0 -15.5 6.5t-6.5 15.5v2l22 137q3 16 13.5 27.5z" />
    <glyph glyph-name="Eng" unicode="&#x14a;" horiz-adv-x="726" 
d="M255 365v-338q0 -11 -8 -19t-19 -8h-131q-11 0 -19 8t-8 19v646q0 11 8 19t19 8h104q15 0 26 -7.5t15 -15.5l229 -342v338q0 11 8 19t19 8h131q11 0 19 -8t8 -19v-690q0 -94 -53 -151t-145 -57h-70q-11 0 -19 8t-8 19v106q0 11 8 19t19 8h40q22 0 32.5 13.5t10.5 34.5v59
z" />
    <glyph glyph-name="Ntilde" unicode="&#xd1;" horiz-adv-x="726" 
d="M499 7.5q-11 7.5 -15 15.5l-229 342v-338q0 -11 -8 -19t-19 -8h-131q-11 0 -19 8t-8 19v646q0 11 8 19t19 8h104q15 0 26 -7.5t15 -15.5l229 -342v338q0 11 8 19t19 8h131q11 0 19 -8t8 -19v-646q0 -11 -8 -19t-19 -8h-104q-15 0 -26 7.5zM290 784.5q-6 -5.5 -12 -17.5
q-5 -8 -9 -12.5t-10 -4.5h-76q-9 0 -14 5.5t-5 13.5q0 32 12.5 63.5t38 52t61.5 20.5q32 0 52 -7t43 -21q14 -9 24.5 -13t22.5 -4t18 5.5t12 17.5q5 8 9 12.5t10 4.5h76q9 0 14 -5.5t5 -13.5q0 -31 -14.5 -62.5t-40 -52.5t-57.5 -21t-52 7t-43 21q-14 9 -24.5 13t-22.5 4
t-18 -5.5z" />
    <glyph glyph-name="O" unicode="O" 
d="M523 674q69 -36 106.5 -97.5t41.5 -137.5q2 -28 2 -90q0 -61 -2 -88q-4 -76 -41.5 -137.5t-106.5 -97.5t-164 -36t-164 36t-106.5 97.5t-41.5 137.5q-2 54 -2 88t2 90q4 76 41.5 137.5t106.5 97.5t164 36t164 -36zM449.5 518.5q-31.5 31.5 -90.5 31.5t-90.5 -31.5
t-36.5 -84.5q-3 -33 -3 -83q0 -49 3 -85q5 -53 36.5 -84.5t90.5 -31.5t90.5 31.5t36.5 84.5q3 36 3 85q0 50 -3 83q-5 53 -36.5 84.5z" />
    <glyph glyph-name="Oacute" unicode="&#xd3;" 
d="M523 674q69 -36 106.5 -97.5t41.5 -137.5q2 -28 2 -90q0 -61 -2 -88q-4 -76 -41.5 -137.5t-106.5 -97.5t-164 -36t-164 36t-106.5 97.5t-41.5 137.5q-2 54 -2 88t2 90q4 76 41.5 137.5t106.5 97.5t164 36t164 -36zM449.5 518.5q-31.5 31.5 -90.5 31.5t-90.5 -31.5
t-36.5 -84.5q-3 -33 -3 -83q0 -49 3 -85q5 -53 36.5 -84.5t90.5 -31.5t90.5 31.5t36.5 84.5q3 36 3 85q0 50 -3 83q-5 53 -36.5 84.5zM391 906.5q7 3.5 19 3.5h143q9 0 14 -5.5t5 -14.5q0 -7 -5 -12l-135 -111q-11 -9 -19.5 -13t-22.5 -4h-98q-16 0 -16 16q0 8 5 13l92 112
q11 12 18 15.5z" />
    <glyph glyph-name="Obreve" unicode="&#x14e;" 
d="M523 674q69 -36 106.5 -97.5t41.5 -137.5q2 -28 2 -90q0 -61 -2 -88q-4 -76 -41.5 -137.5t-106.5 -97.5t-164 -36t-164 36t-106.5 97.5t-41.5 137.5q-2 54 -2 88t2 90q4 76 41.5 137.5t106.5 97.5t164 36t164 -36zM449.5 518.5q-31.5 31.5 -90.5 31.5t-90.5 -31.5
t-36.5 -84.5q-3 -33 -3 -83q0 -49 3 -85q5 -53 36.5 -84.5t90.5 -31.5t90.5 31.5t36.5 84.5q3 36 3 85q0 50 -3 83q-5 53 -36.5 84.5zM195 904.5q5 5.5 14 5.5h84q9 0 14 -5.5t5 -13.5q0 -20 12.5 -35t34.5 -15t34.5 15t12.5 35q0 8 5 13.5t14 5.5h84q9 0 14 -5.5t5 -13.5
q0 -35 -17.5 -68.5t-55.5 -55.5t-96 -22t-96 22t-55.5 55.5t-17.5 68.5q0 8 5 13.5z" />
    <glyph glyph-name="Ocircumflex" unicode="&#xd4;" 
d="M523 674q69 -36 106.5 -97.5t41.5 -137.5q2 -28 2 -90q0 -61 -2 -88q-4 -76 -41.5 -137.5t-106.5 -97.5t-164 -36t-164 36t-106.5 97.5t-41.5 137.5q-2 54 -2 88t2 90q4 76 41.5 137.5t106.5 97.5t164 36t164 -36zM449.5 518.5q-31.5 31.5 -90.5 31.5t-90.5 -31.5
t-36.5 -84.5q-3 -33 -3 -83q0 -49 3 -85q5 -53 36.5 -84.5t90.5 -31.5t90.5 31.5t36.5 84.5q3 36 3 85q0 50 -3 83q-5 53 -36.5 84.5zM427 906q8 -4 18 -15l102 -112q5 -5 5 -13q0 -16 -16 -16h-72q-9 0 -16 3t-15 8l-74 43l-74 -43q-8 -5 -15 -8t-16 -3h-72q-16 0 -16 16
q0 8 5 13l102 112q10 11 18 15t19 4h98q11 0 19 -4z" />
    <glyph glyph-name="Odieresis" unicode="&#xd6;" 
d="M523 674q69 -36 106.5 -97.5t41.5 -137.5q2 -28 2 -90q0 -61 -2 -88q-4 -76 -41.5 -137.5t-106.5 -97.5t-164 -36t-164 36t-106.5 97.5t-41.5 137.5q-2 54 -2 88t2 90q4 76 41.5 137.5t106.5 97.5t164 36t164 -36zM449.5 518.5q-31.5 31.5 -90.5 31.5t-90.5 -31.5
t-36.5 -84.5q-3 -33 -3 -83q0 -49 3 -85q5 -53 36.5 -84.5t90.5 -31.5t90.5 31.5t36.5 84.5q3 36 3 85q0 50 -3 83q-5 53 -36.5 84.5zM301 758q-8 -8 -19 -8h-101q-11 0 -19 8t-8 19v101q0 11 8 19t19 8h101q11 0 19 -8t8 -19v-101q0 -11 -8 -19zM556 758q-8 -8 -19 -8h-101
q-11 0 -19 8t-8 19v101q0 11 8 19t19 8h101q11 0 19 -8t8 -19v-101q0 -11 -8 -19z" />
    <glyph glyph-name="Ograve" unicode="&#xd2;" 
d="M523 674q69 -36 106.5 -97.5t41.5 -137.5q2 -28 2 -90q0 -61 -2 -88q-4 -76 -41.5 -137.5t-106.5 -97.5t-164 -36t-164 36t-106.5 97.5t-41.5 137.5q-2 54 -2 88t2 90q4 76 41.5 137.5t106.5 97.5t164 36t164 -36zM449.5 518.5q-31.5 31.5 -90.5 31.5t-90.5 -31.5
t-36.5 -84.5q-3 -33 -3 -83q0 -49 3 -85q5 -53 36.5 -84.5t90.5 -31.5t90.5 31.5t36.5 84.5q3 36 3 85q0 50 -3 83q-5 53 -36.5 84.5zM428 766q0 -16 -16 -16h-98q-14 0 -22.5 4t-19.5 13l-135 111q-5 5 -5 12q0 9 5 14.5t14 5.5h143q12 0 19 -3.5t18 -15.5l92 -112
q5 -5 5 -13z" />
    <glyph glyph-name="Ohungarumlaut" unicode="&#x150;" 
d="M523 674q69 -36 106.5 -97.5t41.5 -137.5q2 -28 2 -90q0 -61 -2 -88q-4 -76 -41.5 -137.5t-106.5 -97.5t-164 -36t-164 36t-106.5 97.5t-41.5 137.5q-2 54 -2 88t2 90q4 76 41.5 137.5t106.5 97.5t164 36t164 -36zM449.5 518.5q-31.5 31.5 -90.5 31.5t-90.5 -31.5
t-36.5 -84.5q-3 -33 -3 -83q0 -49 3 -85q5 -53 36.5 -84.5t90.5 -31.5t90.5 31.5t36.5 84.5q3 36 3 85q0 50 -3 83q-5 53 -36.5 84.5zM241.5 905.5q8.5 4.5 23.5 4.5h122q9 0 14.5 -5t5.5 -14q0 -7 -6 -13l-105 -114q-12 -14 -34 -14h-73q-16 0 -16 16q0 5 5 15l50 110
q5 10 13.5 14.5zM472.5 905.5q8.5 4.5 23.5 4.5h122q9 0 14.5 -5t5.5 -14q0 -7 -6 -13l-105 -114q-12 -14 -34 -14h-73q-16 0 -16 16q0 5 5 15l50 110q5 10 13.5 14.5z" />
    <glyph glyph-name="Omacron" unicode="&#x14c;" 
d="M523 674q69 -36 106.5 -97.5t41.5 -137.5q2 -28 2 -90q0 -61 -2 -88q-4 -76 -41.5 -137.5t-106.5 -97.5t-164 -36t-164 36t-106.5 97.5t-41.5 137.5q-2 54 -2 88t2 90q4 76 41.5 137.5t106.5 97.5t164 36t164 -36zM449.5 518.5q-31.5 31.5 -90.5 31.5t-90.5 -31.5
t-36.5 -84.5q-3 -33 -3 -83q0 -49 3 -85q5 -53 36.5 -84.5t90.5 -31.5t90.5 31.5t36.5 84.5q3 36 3 85q0 50 -3 83q-5 53 -36.5 84.5zM181 758q-8 8 -8 19v86q0 11 8 19t19 8h319q11 0 19 -8t8 -19v-86q0 -11 -8 -19t-19 -8h-319q-11 0 -19 8z" />
    <glyph glyph-name="Oslash" unicode="&#xd8;" horiz-adv-x="756" 
d="M569.5 658q76.5 -52 105.5 -139l35 14q8 3 11 3q9 0 15 -6t6 -15v-58q0 -13 -5 -20.5t-17 -12.5l-29 -11q1 -19 1 -59q0 -37 -2 -93q-4 -76 -41.5 -137.5t-106.5 -97.5t-164 -36q-115 0 -191.5 51.5t-105.5 136.5l-35 -13q-7 -3 -11 -3q-9 0 -15 6t-6 15v58q0 14 5 21.5
t17 11.5l28 11q-1 17 -1 54q0 52 3 100q4 76 41.5 137.5t106.5 97.5t164 36q115 0 191.5 -52zM502 453q-9 45 -39.5 71t-84.5 26q-59 0 -90.5 -31.5t-36.5 -84.5q-3 -33 -3 -79zM254 245q9 -44 40 -69.5t84 -25.5q59 0 90.5 31.5t36.5 84.5q3 32 3 76z" />
    <glyph glyph-name="Oslashacute" unicode="&#x1fe;" horiz-adv-x="756" 
d="M417 906.5q7 3.5 19 3.5h143q9 0 14 -5.5t5 -14.5q0 -7 -5 -12l-135 -111q-11 -9 -19.5 -13t-22.5 -4h-98q-16 0 -16 16q0 8 5 13l92 112q11 12 18 15.5zM569.5 658q76.5 -52 105.5 -139l35 14q8 3 11 3q9 0 15 -6t6 -15v-58q0 -13 -5 -20.5t-17 -12.5l-29 -11
q1 -19 1 -59q0 -37 -2 -93q-4 -76 -41.5 -137.5t-106.5 -97.5t-164 -36q-115 0 -191.5 51.5t-105.5 136.5l-35 -13q-7 -3 -11 -3q-9 0 -15 6t-6 15v58q0 14 5 21.5t17 11.5l28 11q-1 17 -1 54q0 52 3 100q4 76 41.5 137.5t106.5 97.5t164 36q115 0 191.5 -52zM502 453
q-9 45 -39.5 71t-84.5 26q-59 0 -90.5 -31.5t-36.5 -84.5q-3 -33 -3 -79zM254 245q9 -44 40 -69.5t84 -25.5q59 0 90.5 31.5t36.5 84.5q3 32 3 76z" />
    <glyph glyph-name="Otilde" unicode="&#xd5;" 
d="M523 674q69 -36 106.5 -97.5t41.5 -137.5q2 -28 2 -90q0 -61 -2 -88q-4 -76 -41.5 -137.5t-106.5 -97.5t-164 -36t-164 36t-106.5 97.5t-41.5 137.5q-2 54 -2 88t2 90q4 76 41.5 137.5t106.5 97.5t164 36t164 -36zM449.5 518.5q-31.5 31.5 -90.5 31.5t-90.5 -31.5
t-36.5 -84.5q-3 -33 -3 -83q0 -49 3 -85q5 -53 36.5 -84.5t90.5 -31.5t90.5 31.5t36.5 84.5q3 36 3 85q0 50 -3 83q-5 53 -36.5 84.5zM286 784.5q-6 -5.5 -12 -17.5q-5 -8 -9 -12.5t-10 -4.5h-76q-9 0 -14 5.5t-5 13.5q0 32 12.5 63.5t38 52t61.5 20.5q32 0 52 -7t43 -21
q14 -9 24.5 -13t22.5 -4t18 5.5t12 17.5q5 8 9 12.5t10 4.5h76q9 0 14 -5.5t5 -13.5q0 -31 -14.5 -62.5t-40 -52.5t-57.5 -21t-52 7t-43 21q-14 9 -24.5 13t-22.5 4t-18 -5.5z" />
    <glyph glyph-name="OE" unicode="&#x152;" horiz-adv-x="982" 
d="M928 152q8 -8 8 -19v-106q0 -11 -8 -19t-19 -8h-553q-91 0 -160 35.5t-108.5 98.5t-42.5 145q-1 27 -1 70q0 44 1 72q3 81 43.5 144.5t111 99t161.5 35.5h540q11 0 19 -8t8 -19v-106q0 -11 -8 -19t-19 -8h-278v-108h256q11 0 19 -8t8 -19v-106q0 -11 -8 -19t-19 -8h-256
v-112h286q11 0 19 -8zM361 160h77v380h-72q-64 0 -98.5 -29t-37.5 -86q-1 -27 -1 -74t1 -76q5 -115 131 -115z" />
    <glyph glyph-name="P" unicode="P" horiz-adv-x="686" 
d="M586.5 640.5q73.5 -59.5 73.5 -174.5t-73.5 -175t-203.5 -60h-128v-204q0 -11 -8 -19t-19 -8h-131q-11 0 -19 8t-8 19v646q0 11 8 19t19 8h286q130 0 203.5 -59.5zM378 387q44 0 70.5 19.5t26.5 59.5t-26.5 59.5t-70.5 19.5h-123v-158h123z" />
    <glyph glyph-name="Thorn" unicode="&#xde;" horiz-adv-x="688" 
d="M383 585q130 0 203.5 -59.5t73.5 -174.5t-73.5 -175t-203.5 -60h-128v-89q0 -11 -8 -19t-19 -8h-131q-11 0 -19 8t-8 19v646q0 11 8 19t19 8h131q11 0 19 -8t8 -19v-88h128zM378 272q44 0 70.5 19.5t26.5 59.5t-26.5 59.5t-70.5 19.5h-123v-158h123z" />
    <glyph glyph-name="Q" unicode="Q" 
d="M523 674q69 -36 106.5 -97.5t41.5 -137.5q2 -28 2 -90q0 -61 -2 -88q-6 -109 -74 -181l79 -114q3 -6 3 -9v-3q0 -8 -6 -13.5t-14 -5.5h-141q-16 0 -25.5 6.5t-16.5 16.5l-28 42q-47 -10 -89 -10q-95 0 -164 36t-106.5 97.5t-41.5 137.5q-2 54 -2 88t2 90q4 76 41.5 137.5
t106.5 97.5t164 36t164 -36zM449.5 518.5q-31.5 31.5 -90.5 31.5t-90.5 -31.5t-36.5 -84.5q-3 -33 -3 -83q0 -49 3 -85q5 -53 36.5 -84.5t90.5 -31.5t90.5 31.5t36.5 84.5q3 36 3 85q0 50 -3 83q-5 53 -36.5 84.5z" />
    <glyph glyph-name="R" unicode="R" horiz-adv-x="695" 
d="M576 642.5q74 -57.5 74 -171.5q0 -145 -119 -200l124 -238q3 -6 3 -11q0 -9 -6.5 -15.5t-15.5 -6.5h-136q-18 0 -27 7.5t-15 19.5l-111 214h-92v-214q0 -11 -8 -19t-19 -8h-131q-11 0 -19 8t-8 19v646q0 11 8 19t19 8h271q134 0 208 -57.5zM368 397q97 0 97 74t-97 74
h-113v-148h113z" />
    <glyph glyph-name="Racute" unicode="&#x154;" horiz-adv-x="695" 
d="M576 642.5q74 -57.5 74 -171.5q0 -145 -119 -200l124 -238q3 -6 3 -11q0 -9 -6.5 -15.5t-15.5 -6.5h-136q-18 0 -27 7.5t-15 19.5l-111 214h-92v-214q0 -11 -8 -19t-19 -8h-131q-11 0 -19 8t-8 19v646q0 11 8 19t19 8h271q134 0 208 -57.5zM368 397q97 0 97 74t-97 74
h-113v-148h113zM381 906.5q7 3.5 19 3.5h143q9 0 14 -5.5t5 -14.5q0 -7 -5 -12l-135 -111q-11 -9 -19.5 -13t-22.5 -4h-98q-16 0 -16 16q0 8 5 13l92 112q11 12 18 15.5z" />
    <glyph glyph-name="Rcaron" unicode="&#x158;" horiz-adv-x="695" 
d="M576 642.5q74 -57.5 74 -171.5q0 -145 -119 -200l124 -238q3 -6 3 -11q0 -9 -6.5 -15.5t-15.5 -6.5h-136q-18 0 -27 7.5t-15 19.5l-111 214h-92v-214q0 -11 -8 -19t-19 -8h-131q-11 0 -19 8t-8 19v646q0 11 8 19t19 8h271q134 0 208 -57.5zM368 397q97 0 97 74t-97 74
h-113v-148h113zM276 754q-8 4 -18 15l-102 112q-5 5 -5 13q0 16 16 16h72q9 0 16 -3t15 -8l74 -43l74 43q8 5 15 8t16 3h72q16 0 16 -16q0 -8 -5 -13l-102 -112q-10 -11 -18 -15t-19 -4h-98q-11 0 -19 4z" />
    <glyph glyph-name="Rcommaaccent" unicode="&#x156;" horiz-adv-x="695" 
d="M576 642.5q74 -57.5 74 -171.5q0 -145 -119 -200l124 -238q3 -6 3 -11q0 -9 -6.5 -15.5t-15.5 -6.5h-136q-18 0 -27 7.5t-15 19.5l-111 214h-92v-214q0 -11 -8 -19t-19 -8h-131q-11 0 -19 8t-8 19v646q0 11 8 19t19 8h271q134 0 208 -57.5zM368 397q97 0 97 74t-97 74
h-113v-148h113zM264.5 -61.5q10.5 11.5 29.5 11.5h123q9 0 15.5 -6.5t6.5 -15.5q0 -4 -1 -7l-55 -139q-12 -32 -43 -32h-89q-9 0 -15.5 6.5t-6.5 15.5v2l22 137q3 16 13.5 27.5z" />
    <glyph glyph-name="S" unicode="S" horiz-adv-x="674" 
d="M617.5 497.5q-6.5 -6.5 -14.5 -6.5h-131q-14 0 -22 3.5t-18 12.5l-13 13.5t-34.5 20.5t-54.5 9q-43 0 -70.5 -11.5t-27.5 -39.5q0 -20 17 -31.5t52.5 -20.5t123.5 -27q113 -23 166 -72t53 -140q0 -66 -39.5 -115.5t-110 -76t-159.5 -26.5q-86 0 -156 30t-110 78t-42 99
q0 9 6.5 15.5t14.5 6.5h131q22 0 38 -14q3 -3 16 -17.5t39.5 -26t62.5 -11.5q124 0 124 53q0 17 -17.5 28.5t-49.5 19.5t-102 23l-45 9q-102 22 -150 73.5t-48 137.5q0 58 35 107.5t99.5 79t148.5 29.5q81 0 148 -30.5t105.5 -76.5t40.5 -90q0 -9 -6.5 -15.5z" />
    <glyph glyph-name="Sacute" unicode="&#x15a;" horiz-adv-x="674" 
d="M617.5 497.5q-6.5 -6.5 -14.5 -6.5h-131q-14 0 -22 3.5t-18 12.5l-13 13.5t-34.5 20.5t-54.5 9q-43 0 -70.5 -11.5t-27.5 -39.5q0 -20 17 -31.5t52.5 -20.5t123.5 -27q113 -23 166 -72t53 -140q0 -66 -39.5 -115.5t-110 -76t-159.5 -26.5q-86 0 -156 30t-110 78t-42 99
q0 9 6.5 15.5t14.5 6.5h131q22 0 38 -14q3 -3 16 -17.5t39.5 -26t62.5 -11.5q124 0 124 53q0 17 -17.5 28.5t-49.5 19.5t-102 23l-45 9q-102 22 -150 73.5t-48 137.5q0 58 35 107.5t99.5 79t148.5 29.5q81 0 148 -30.5t105.5 -76.5t40.5 -90q0 -9 -6.5 -15.5zM376 906.5
q7 3.5 19 3.5h143q9 0 14 -5.5t5 -14.5q0 -7 -5 -12l-135 -111q-11 -9 -19.5 -13t-22.5 -4h-98q-16 0 -16 16q0 8 5 13l92 112q11 12 18 15.5z" />
    <glyph glyph-name="Scaron" unicode="&#x160;" horiz-adv-x="674" 
d="M617.5 497.5q-6.5 -6.5 -14.5 -6.5h-131q-14 0 -22 3.5t-18 12.5l-13 13.5t-34.5 20.5t-54.5 9q-43 0 -70.5 -11.5t-27.5 -39.5q0 -20 17 -31.5t52.5 -20.5t123.5 -27q113 -23 166 -72t53 -140q0 -66 -39.5 -115.5t-110 -76t-159.5 -26.5q-86 0 -156 30t-110 78t-42 99
q0 9 6.5 15.5t14.5 6.5h131q22 0 38 -14q3 -3 16 -17.5t39.5 -26t62.5 -11.5q124 0 124 53q0 17 -17.5 28.5t-49.5 19.5t-102 23l-45 9q-102 22 -150 73.5t-48 137.5q0 58 35 107.5t99.5 79t148.5 29.5q81 0 148 -30.5t105.5 -76.5t40.5 -90q0 -9 -6.5 -15.5zM267 754
q-8 4 -18 15l-102 112q-5 5 -5 13q0 16 16 16h72q9 0 16 -3t15 -8l74 -43l74 43q8 5 15 8t16 3h72q16 0 16 -16q0 -8 -5 -13l-102 -112q-10 -11 -18 -15t-19 -4h-98q-11 0 -19 4z" />
    <glyph glyph-name="Scedilla" unicode="&#x15e;" horiz-adv-x="674" 
d="M617.5 497.5q-6.5 -6.5 -14.5 -6.5h-131q-14 0 -22 3.5t-18 12.5l-13 13.5t-34.5 20.5t-54.5 9q-43 0 -70.5 -11.5t-27.5 -39.5q0 -20 17 -31.5t52.5 -20.5t123.5 -27q113 -23 166 -72t53 -140q0 -65 -38.5 -114t-106.5 -75.5t-156 -28.5l-21 -44q16 10 37 10
q37 0 56.5 -25t19.5 -63q0 -37 -27.5 -62.5t-71.5 -25.5q-27 0 -54.5 13.5t-27.5 27.5q0 6 5 10l18 16q8 8 15 8q4 0 16.5 -7t27.5 -7q33 0 33 27t-33 27q-6 0 -19.5 -3.5t-19.5 -3.5q-9 0 -15 6l-18 21l-5.5 7.5t-2.5 7.5q0 6 6 18l21 45q-74 9 -132 40t-90.5 74.5
t-33.5 89.5q0 9 6.5 15.5t14.5 6.5h131q22 0 38 -14q3 -3 16 -17.5t39.5 -26t62.5 -11.5q124 0 124 53q0 17 -17.5 28.5t-49.5 19.5t-102 23l-45 9q-102 22 -150 73.5t-48 137.5q0 58 35 107.5t99.5 79t148.5 29.5q81 0 148 -30.5t105.5 -76.5t40.5 -90q0 -9 -6.5 -15.5z
" />
    <glyph glyph-name="Scircumflex" unicode="&#x15c;" horiz-adv-x="674" 
d="M617.5 497.5q-6.5 -6.5 -14.5 -6.5h-131q-14 0 -22 3.5t-18 12.5l-13 13.5t-34.5 20.5t-54.5 9q-43 0 -70.5 -11.5t-27.5 -39.5q0 -20 17 -31.5t52.5 -20.5t123.5 -27q113 -23 166 -72t53 -140q0 -66 -39.5 -115.5t-110 -76t-159.5 -26.5q-86 0 -156 30t-110 78t-42 99
q0 9 6.5 15.5t14.5 6.5h131q22 0 38 -14q3 -3 16 -17.5t39.5 -26t62.5 -11.5q124 0 124 53q0 17 -17.5 28.5t-49.5 19.5t-102 23l-45 9q-102 22 -150 73.5t-48 137.5q0 58 35 107.5t99.5 79t148.5 29.5q81 0 148 -30.5t105.5 -76.5t40.5 -90q0 -9 -6.5 -15.5zM403 906
q8 -4 18 -15l102 -112q5 -5 5 -13q0 -16 -16 -16h-72q-9 0 -16 3t-15 8l-74 43l-74 -43q-8 -5 -15 -8t-16 -3h-72q-16 0 -16 16q0 8 5 13l102 112q10 11 18 15t19 4h98q11 0 19 -4z" />
    <glyph glyph-name="Scommaaccent" unicode="&#x218;" horiz-adv-x="674" 
d="M617.5 497.5q-6.5 -6.5 -14.5 -6.5h-131q-14 0 -22 3.5t-18 12.5l-13 13.5t-34.5 20.5t-54.5 9q-43 0 -70.5 -11.5t-27.5 -39.5q0 -20 17 -31.5t52.5 -20.5t123.5 -27q113 -23 166 -72t53 -140q0 -66 -39.5 -115.5t-110 -76t-159.5 -26.5q-86 0 -156 30t-110 78t-42 99
q0 9 6.5 15.5t14.5 6.5h131q22 0 38 -14q3 -3 16 -17.5t39.5 -26t62.5 -11.5q124 0 124 53q0 17 -17.5 28.5t-49.5 19.5t-102 23l-45 9q-102 22 -150 73.5t-48 137.5q0 58 35 107.5t99.5 79t148.5 29.5q81 0 148 -30.5t105.5 -76.5t40.5 -90q0 -9 -6.5 -15.5zM254.5 -61.5
q10.5 11.5 29.5 11.5h123q9 0 15.5 -6.5t6.5 -15.5q0 -4 -1 -7l-55 -139q-12 -32 -43 -32h-89q-9 0 -15.5 6.5t-6.5 15.5v2l22 137q3 16 13.5 27.5z" />
    <glyph glyph-name="T" unicode="T" horiz-adv-x="631" 
d="M603 692q8 -8 8 -19v-106q0 -11 -8 -19t-19 -8h-176v-513q0 -11 -8 -19t-19 -8h-131q-11 0 -19 8t-8 19v513h-176q-11 0 -19 8t-8 19v106q0 11 8 19t19 8h537q11 0 19 -8z" />
    <glyph glyph-name="Tbar" unicode="&#x166;" horiz-adv-x="640" 
d="M412 27q0 -11 -8 -19t-19 -8h-131q-11 0 -19 8t-8 19v260h-93q-11 0 -19 8t-8 19v53q0 11 8 19t19 8h93v146h-176q-11 0 -19 8t-8 19v106q0 11 8 19t19 8h537q11 0 19 -8t8 -19v-106q0 -11 -8 -19t-19 -8h-176v-146h93q11 0 19 -8t8 -19v-53q0 -11 -8 -19t-19 -8h-93
v-260z" />
    <glyph glyph-name="Tcaron" unicode="&#x164;" horiz-adv-x="631" 
d="M603 692q8 -8 8 -19v-106q0 -11 -8 -19t-19 -8h-176v-513q0 -11 -8 -19t-19 -8h-131q-11 0 -19 8t-8 19v513h-176q-11 0 -19 8t-8 19v106q0 11 8 19t19 8h537q11 0 19 -8zM247 754q-8 4 -18 15l-102 112q-5 5 -5 13q0 16 16 16h72q9 0 16 -3t15 -8l74 -43l74 43q8 5 15 8
t16 3h72q16 0 16 -16q0 -8 -5 -13l-102 -112q-10 -11 -18 -15t-19 -4h-98q-11 0 -19 4z" />
    <glyph glyph-name="uni021A" unicode="&#x21a;" horiz-adv-x="631" 
d="M603 692q8 -8 8 -19v-106q0 -11 -8 -19t-19 -8h-176v-513q0 -11 -8 -19t-19 -8h-131q-11 0 -19 8t-8 19v513h-176q-11 0 -19 8t-8 19v106q0 11 8 19t19 8h537q11 0 19 -8zM233.5 -61.5q10.5 11.5 29.5 11.5h123q9 0 15.5 -6.5t6.5 -15.5q0 -4 -1 -7l-55 -139
q-12 -32 -43 -32h-89q-9 0 -15.5 6.5t-6.5 15.5v2l22 137q3 16 13.5 27.5z" />
    <glyph glyph-name="U" unicode="U" horiz-adv-x="734" 
d="M663 692q8 -8 8 -19v-399q0 -90 -38 -154t-106.5 -97t-159.5 -33q-92 0 -160.5 33t-106 97t-37.5 154v399q0 11 8 19t19 8h131q11 0 19 -8t8 -19v-395q0 -61 30.5 -94.5t88.5 -33.5t88.5 33.5t30.5 94.5v395q0 11 8 19t19 8h131q11 0 19 -8z" />
    <glyph glyph-name="Uacute" unicode="&#xda;" horiz-adv-x="734" 
d="M663 692q8 -8 8 -19v-399q0 -90 -38 -154t-106.5 -97t-159.5 -33q-92 0 -160.5 33t-106 97t-37.5 154v399q0 11 8 19t19 8h131q11 0 19 -8t8 -19v-395q0 -61 30.5 -94.5t88.5 -33.5t88.5 33.5t30.5 94.5v395q0 11 8 19t19 8h131q11 0 19 -8zM399 906.5q7 3.5 19 3.5h143
q9 0 14 -5.5t5 -14.5q0 -7 -5 -12l-135 -111q-11 -9 -19.5 -13t-22.5 -4h-98q-16 0 -16 16q0 8 5 13l92 112q11 12 18 15.5z" />
    <glyph glyph-name="Ubreve" unicode="&#x16c;" horiz-adv-x="734" 
d="M663 692q8 -8 8 -19v-399q0 -90 -38 -154t-106.5 -97t-159.5 -33q-92 0 -160.5 33t-106 97t-37.5 154v399q0 11 8 19t19 8h131q11 0 19 -8t8 -19v-395q0 -61 30.5 -94.5t88.5 -33.5t88.5 33.5t30.5 94.5v395q0 11 8 19t19 8h131q11 0 19 -8zM203 904.5q5 5.5 14 5.5h84
q9 0 14 -5.5t5 -13.5q0 -20 12.5 -35t34.5 -15t34.5 15t12.5 35q0 8 5 13.5t14 5.5h84q9 0 14 -5.5t5 -13.5q0 -35 -17.5 -68.5t-55.5 -55.5t-96 -22t-96 22t-55.5 55.5t-17.5 68.5q0 8 5 13.5z" />
    <glyph glyph-name="Ucircumflex" unicode="&#xdb;" horiz-adv-x="734" 
d="M663 692q8 -8 8 -19v-399q0 -90 -38 -154t-106.5 -97t-159.5 -33q-92 0 -160.5 33t-106 97t-37.5 154v399q0 11 8 19t19 8h131q11 0 19 -8t8 -19v-395q0 -61 30.5 -94.5t88.5 -33.5t88.5 33.5t30.5 94.5v395q0 11 8 19t19 8h131q11 0 19 -8zM435 906q8 -4 18 -15
l102 -112q5 -5 5 -13q0 -16 -16 -16h-72q-9 0 -16 3t-15 8l-74 43l-74 -43q-8 -5 -15 -8t-16 -3h-72q-16 0 -16 16q0 8 5 13l102 112q10 11 18 15t19 4h98q11 0 19 -4z" />
    <glyph glyph-name="Udieresis" unicode="&#xdc;" horiz-adv-x="734" 
d="M663 692q8 -8 8 -19v-399q0 -90 -38 -154t-106.5 -97t-159.5 -33q-92 0 -160.5 33t-106 97t-37.5 154v399q0 11 8 19t19 8h131q11 0 19 -8t8 -19v-395q0 -61 30.5 -94.5t88.5 -33.5t88.5 33.5t30.5 94.5v395q0 11 8 19t19 8h131q11 0 19 -8zM309 758q-8 -8 -19 -8h-101
q-11 0 -19 8t-8 19v101q0 11 8 19t19 8h101q11 0 19 -8t8 -19v-101q0 -11 -8 -19zM564 758q-8 -8 -19 -8h-101q-11 0 -19 8t-8 19v101q0 11 8 19t19 8h101q11 0 19 -8t8 -19v-101q0 -11 -8 -19z" />
    <glyph glyph-name="Ugrave" unicode="&#xd9;" horiz-adv-x="734" 
d="M663 692q8 -8 8 -19v-399q0 -90 -38 -154t-106.5 -97t-159.5 -33q-92 0 -160.5 33t-106 97t-37.5 154v399q0 11 8 19t19 8h131q11 0 19 -8t8 -19v-395q0 -61 30.5 -94.5t88.5 -33.5t88.5 33.5t30.5 94.5v395q0 11 8 19t19 8h131q11 0 19 -8zM449 766q0 -16 -16 -16h-98
q-14 0 -22.5 4t-19.5 13l-135 111q-5 5 -5 12q0 9 5 14.5t14 5.5h143q12 0 19 -3.5t18 -15.5l92 -112q5 -5 5 -13z" />
    <glyph glyph-name="Uhungarumlaut" unicode="&#x170;" horiz-adv-x="734" 
d="M663 692q8 -8 8 -19v-399q0 -90 -38 -154t-106.5 -97t-159.5 -33q-92 0 -160.5 33t-106 97t-37.5 154v399q0 11 8 19t19 8h131q11 0 19 -8t8 -19v-395q0 -61 30.5 -94.5t88.5 -33.5t88.5 33.5t30.5 94.5v395q0 11 8 19t19 8h131q11 0 19 -8zM245.5 905.5
q8.5 4.5 23.5 4.5h122q9 0 14.5 -5t5.5 -14q0 -7 -6 -13l-105 -114q-12 -14 -34 -14h-73q-16 0 -16 16q0 5 5 15l50 110q5 10 13.5 14.5zM476.5 905.5q8.5 4.5 23.5 4.5h122q9 0 14.5 -5t5.5 -14q0 -7 -6 -13l-105 -114q-12 -14 -34 -14h-73q-16 0 -16 16q0 5 5 15l50 110
q5 10 13.5 14.5z" />
    <glyph glyph-name="Umacron" unicode="&#x16a;" horiz-adv-x="734" 
d="M663 692q8 -8 8 -19v-399q0 -90 -38 -154t-106.5 -97t-159.5 -33q-92 0 -160.5 33t-106 97t-37.5 154v399q0 11 8 19t19 8h131q11 0 19 -8t8 -19v-395q0 -61 30.5 -94.5t88.5 -33.5t88.5 33.5t30.5 94.5v395q0 11 8 19t19 8h131q11 0 19 -8zM189 758q-8 8 -8 19v86
q0 11 8 19t19 8h319q11 0 19 -8t8 -19v-86q0 -11 -8 -19t-19 -8h-319q-11 0 -19 8z" />
    <glyph glyph-name="Uogonek" unicode="&#x172;" horiz-adv-x="734" 
d="M663 692q8 -8 8 -19v-399q0 -244 -273 -283q-17 -2 -26.5 -14.5t-9.5 -32.5q0 -24 14.5 -40t39.5 -16h15q10 0 16 -6t6 -16v-64q0 -10 -6 -16t-16 -6h-19q-74 0 -118 45.5t-44 118.5q0 32 10 59q-93 25 -145 94.5t-52 176.5v399q0 11 8 19t19 8h131q11 0 19 -8t8 -19
v-395q0 -61 30.5 -94.5t88.5 -33.5t88.5 33.5t30.5 94.5v395q0 11 8 19t19 8h131q11 0 19 -8z" />
    <glyph glyph-name="Uring" unicode="&#x16e;" horiz-adv-x="734" 
d="M663 692q8 -8 8 -19v-399q0 -90 -38 -154t-106.5 -97t-159.5 -33q-92 0 -160.5 33t-106 97t-37.5 154v399q0 11 8 19t19 8h131q11 0 19 -8t8 -19v-395q0 -61 30.5 -94.5t88.5 -33.5t88.5 33.5t30.5 94.5v395q0 11 8 19t19 8h131q11 0 19 -8zM434.5 894.5
q27.5 -25.5 27.5 -64.5t-27.5 -64.5t-67.5 -25.5t-67.5 25.5t-27.5 64.5t27.5 64.5t67.5 25.5t67.5 -25.5zM388.5 808.5q8.5 8.5 8.5 21.5t-8.5 21.5t-21.5 8.5t-21.5 -8.5t-8.5 -21.5t8.5 -21.5t21.5 -8.5t21.5 8.5z" />
    <glyph glyph-name="Utilde" unicode="&#x168;" horiz-adv-x="734" 
d="M663 692q8 -8 8 -19v-399q0 -90 -38 -154t-106.5 -97t-159.5 -33q-92 0 -160.5 33t-106 97t-37.5 154v399q0 11 8 19t19 8h131q11 0 19 -8t8 -19v-395q0 -61 30.5 -94.5t88.5 -33.5t88.5 33.5t30.5 94.5v395q0 11 8 19t19 8h131q11 0 19 -8zM294 784.5q-6 -5.5 -12 -17.5
q-5 -8 -9 -12.5t-10 -4.5h-76q-9 0 -14 5.5t-5 13.5q0 32 12.5 63.5t38 52t61.5 20.5q32 0 52 -7t43 -21q14 -9 24.5 -13t22.5 -4t18 5.5t12 17.5q5 8 9 12.5t10 4.5h76q9 0 14 -5.5t5 -13.5q0 -31 -14.5 -62.5t-40 -52.5t-57.5 -21t-52 7t-43 21q-14 9 -24.5 13t-22.5 4
t-18 -5.5z" />
    <glyph glyph-name="V" unicode="V" horiz-adv-x="696" 
d="M229 40l-204 625q-3 9 -3 13q0 9 6.5 15.5t15.5 6.5h126q17 0 26.5 -7.5t12.5 -17.5l139 -440l139 440q3 10 12.5 17.5t26.5 7.5h126q9 0 15.5 -6.5t6.5 -15.5q0 -4 -3 -13l-204 -625q-14 -40 -53 -40h-132q-39 0 -53 40z" />
    <glyph glyph-name="W" unicode="W" horiz-adv-x="832" 
d="M620 673q3 14 11.5 20.5t19.5 6.5h131q9 0 15.5 -6.5t6.5 -15.5l-1 -8l-129 -632q-2 -14 -16.5 -26t-33.5 -12h-83q-19 0 -32 11.5t-18 26.5l-75 226l-75 -226q-5 -15 -18 -26.5t-32 -11.5h-83q-19 0 -33.5 12t-16.5 26l-129 632l-1 8q0 9 6.5 15.5t15.5 6.5h131
q11 0 19.5 -6.5t11.5 -20.5l64 -338l59 181q10 29 34 29h94q24 0 34 -29l59 -181z" />
    <glyph glyph-name="Wacute" unicode="&#x1e82;" horiz-adv-x="832" 
d="M620 673q3 14 11.5 20.5t19.5 6.5h131q9 0 15.5 -6.5t6.5 -15.5l-1 -8l-129 -632q-2 -14 -16.5 -26t-33.5 -12h-83q-19 0 -32 11.5t-18 26.5l-75 226l-75 -226q-5 -15 -18 -26.5t-32 -11.5h-83q-19 0 -33.5 12t-16.5 26l-129 632l-1 8q0 9 6.5 15.5t15.5 6.5h131
q11 0 19.5 -6.5t11.5 -20.5l64 -338l59 181q10 29 34 29h94q24 0 34 -29l59 -181zM458 906.5q7 3.5 19 3.5h143q9 0 14 -5.5t5 -14.5q0 -7 -5 -12l-135 -111q-11 -9 -19.5 -13t-22.5 -4h-98q-16 0 -16 16q0 8 5 13l92 112q11 12 18 15.5z" />
    <glyph glyph-name="Wcircumflex" unicode="&#x174;" horiz-adv-x="832" 
d="M620 673q3 14 11.5 20.5t19.5 6.5h131q9 0 15.5 -6.5t6.5 -15.5l-1 -8l-129 -632q-2 -14 -16.5 -26t-33.5 -12h-83q-19 0 -32 11.5t-18 26.5l-75 226l-75 -226q-5 -15 -18 -26.5t-32 -11.5h-83q-19 0 -33.5 12t-16.5 26l-129 632l-1 8q0 9 6.5 15.5t15.5 6.5h131
q11 0 19.5 -6.5t11.5 -20.5l64 -338l59 181q10 29 34 29h94q24 0 34 -29l59 -181zM484 906q8 -4 18 -15l102 -112q5 -5 5 -13q0 -16 -16 -16h-72q-9 0 -16 3t-15 8l-74 43l-74 -43q-8 -5 -15 -8t-16 -3h-72q-16 0 -16 16q0 8 5 13l102 112q10 11 18 15t19 4h98q11 0 19 -4z
" />
    <glyph glyph-name="Wdieresis" unicode="&#x1e84;" horiz-adv-x="832" 
d="M620 673q3 14 11.5 20.5t19.5 6.5h131q9 0 15.5 -6.5t6.5 -15.5l-1 -8l-129 -632q-2 -14 -16.5 -26t-33.5 -12h-83q-19 0 -32 11.5t-18 26.5l-75 226l-75 -226q-5 -15 -18 -26.5t-32 -11.5h-83q-19 0 -33.5 12t-16.5 26l-129 632l-1 8q0 9 6.5 15.5t15.5 6.5h131
q11 0 19.5 -6.5t11.5 -20.5l64 -338l59 181q10 29 34 29h94q24 0 34 -29l59 -181zM358 758q-8 -8 -19 -8h-101q-11 0 -19 8t-8 19v101q0 11 8 19t19 8h101q11 0 19 -8t8 -19v-101q0 -11 -8 -19zM613 758q-8 -8 -19 -8h-101q-11 0 -19 8t-8 19v101q0 11 8 19t19 8h101
q11 0 19 -8t8 -19v-101q0 -11 -8 -19z" />
    <glyph glyph-name="Wgrave" unicode="&#x1e80;" horiz-adv-x="832" 
d="M620 673q3 14 11.5 20.5t19.5 6.5h131q9 0 15.5 -6.5t6.5 -15.5l-1 -8l-129 -632q-2 -14 -16.5 -26t-33.5 -12h-83q-19 0 -32 11.5t-18 26.5l-75 226l-75 -226q-5 -15 -18 -26.5t-32 -11.5h-83q-19 0 -33.5 12t-16.5 26l-129 632l-1 8q0 9 6.5 15.5t15.5 6.5h131
q11 0 19.5 -6.5t11.5 -20.5l64 -338l59 181q10 29 34 29h94q24 0 34 -29l59 -181zM491 766q0 -16 -16 -16h-98q-14 0 -22.5 4t-19.5 13l-135 111q-5 5 -5 12q0 9 5 14.5t14 5.5h143q12 0 19 -3.5t18 -15.5l92 -112q5 -5 5 -13z" />
    <glyph glyph-name="X" unicode="X" horiz-adv-x="711" 
d="M226 23q-8 -12 -16 -17.5t-25 -5.5h-152q-9 0 -15.5 6.5t-6.5 15.5q0 6 3 11l231 323l-221 311q-3 6 -3 11q0 9 6.5 15.5t15.5 6.5h151q17 0 25.5 -7t16.5 -18l121 -169l117 169q8 11 16.5 18t25.5 7h153q9 0 15.5 -6.5t6.5 -15.5q0 -5 -3 -11l-222 -315l229 -319
q3 -5 3 -11q0 -9 -6.5 -15.5t-15.5 -6.5h-152q-17 0 -25 5.5t-16 17.5l-129 180z" />
    <glyph glyph-name="Y" unicode="Y" horiz-adv-x="687" 
d="M428 8q-8 -8 -19 -8h-131q-11 0 -19 8t-8 19v213l-231 425q-4 7 -4 13q0 9 6.5 15.5t15.5 6.5h137q17 0 27.5 -8.5t14.5 -16.5l126 -246l127 246q4 8 14.5 16.5t27.5 8.5h137q9 0 15.5 -6.5t6.5 -15.5q0 -6 -4 -13l-231 -425v-213q0 -11 -8 -19z" />
    <glyph glyph-name="Yacute" unicode="&#xdd;" horiz-adv-x="687" 
d="M428 8q-8 -8 -19 -8h-131q-11 0 -19 8t-8 19v213l-231 425q-4 7 -4 13q0 9 6.5 15.5t15.5 6.5h137q17 0 27.5 -8.5t14.5 -16.5l126 -246l127 246q4 8 14.5 16.5t27.5 8.5h137q9 0 15.5 -6.5t6.5 -15.5q0 -6 -4 -13l-231 -425v-213q0 -11 -8 -19zM378 906.5q7 3.5 19 3.5
h143q9 0 14 -5.5t5 -14.5q0 -7 -5 -12l-135 -111q-11 -9 -19.5 -13t-22.5 -4h-98q-16 0 -16 16q0 8 5 13l92 112q11 12 18 15.5z" />
    <glyph glyph-name="Ycircumflex" unicode="&#x176;" horiz-adv-x="687" 
d="M428 8q-8 -8 -19 -8h-131q-11 0 -19 8t-8 19v213l-231 425q-4 7 -4 13q0 9 6.5 15.5t15.5 6.5h137q17 0 27.5 -8.5t14.5 -16.5l126 -246l127 246q4 8 14.5 16.5t27.5 8.5h137q9 0 15.5 -6.5t6.5 -15.5q0 -6 -4 -13l-231 -425v-213q0 -11 -8 -19zM411 906q8 -4 18 -15
l102 -112q5 -5 5 -13q0 -16 -16 -16h-72q-9 0 -16 3t-15 8l-74 43l-74 -43q-8 -5 -15 -8t-16 -3h-72q-16 0 -16 16q0 8 5 13l102 112q10 11 18 15t19 4h98q11 0 19 -4z" />
    <glyph glyph-name="Ydieresis" unicode="&#x178;" horiz-adv-x="687" 
d="M428 8q-8 -8 -19 -8h-131q-11 0 -19 8t-8 19v213l-231 425q-4 7 -4 13q0 9 6.5 15.5t15.5 6.5h137q17 0 27.5 -8.5t14.5 -16.5l126 -246l127 246q4 8 14.5 16.5t27.5 8.5h137q9 0 15.5 -6.5t6.5 -15.5q0 -6 -4 -13l-231 -425v-213q0 -11 -8 -19zM285 758q-8 -8 -19 -8
h-101q-11 0 -19 8t-8 19v101q0 11 8 19t19 8h101q11 0 19 -8t8 -19v-101q0 -11 -8 -19zM540 758q-8 -8 -19 -8h-101q-11 0 -19 8t-8 19v101q0 11 8 19t19 8h101q11 0 19 -8t8 -19v-101q0 -11 -8 -19z" />
    <glyph glyph-name="Ygrave" unicode="&#x1ef2;" horiz-adv-x="687" 
d="M428 8q-8 -8 -19 -8h-131q-11 0 -19 8t-8 19v213l-231 425q-4 7 -4 13q0 9 6.5 15.5t15.5 6.5h137q17 0 27.5 -8.5t14.5 -16.5l126 -246l127 246q4 8 14.5 16.5t27.5 8.5h137q9 0 15.5 -6.5t6.5 -15.5q0 -6 -4 -13l-231 -425v-213q0 -11 -8 -19zM430 766q0 -16 -16 -16
h-98q-14 0 -22.5 4t-19.5 13l-135 111q-5 5 -5 12q0 9 5 14.5t14 5.5h143q12 0 19 -3.5t18 -15.5l92 -112q5 -5 5 -13z" />
    <glyph glyph-name="Z" unicode="Z" horiz-adv-x="668" 
d="M621 152q8 -8 8 -19v-106q0 -11 -8 -19t-19 -8h-536q-11 0 -19 8t-8 19v101q0 12 4 19t11 16l320 377h-298q-11 0 -19 8t-8 19v106q0 11 8 19t19 8h516q11 0 19 -8t8 -19v-101q0 -19 -13 -33l-320 -379h316q11 0 19 -8z" />
    <glyph glyph-name="Zacute" unicode="&#x179;" horiz-adv-x="668" 
d="M621 152q8 -8 8 -19v-106q0 -11 -8 -19t-19 -8h-536q-11 0 -19 8t-8 19v101q0 12 4 19t11 16l320 377h-298q-11 0 -19 8t-8 19v106q0 11 8 19t19 8h516q11 0 19 -8t8 -19v-101q0 -19 -13 -33l-320 -379h316q11 0 19 -8zM370 906.5q7 3.5 19 3.5h143q9 0 14 -5.5t5 -14.5
q0 -7 -5 -12l-135 -111q-11 -9 -19.5 -13t-22.5 -4h-98q-16 0 -16 16q0 8 5 13l92 112q11 12 18 15.5z" />
    <glyph glyph-name="Zcaron" unicode="&#x17d;" horiz-adv-x="668" 
d="M621 152q8 -8 8 -19v-106q0 -11 -8 -19t-19 -8h-536q-11 0 -19 8t-8 19v101q0 12 4 19t11 16l320 377h-298q-11 0 -19 8t-8 19v106q0 11 8 19t19 8h516q11 0 19 -8t8 -19v-101q0 -19 -13 -33l-320 -379h316q11 0 19 -8zM266 754q-8 4 -18 15l-102 112q-5 5 -5 13
q0 16 16 16h72q9 0 16 -3t15 -8l74 -43l74 43q8 5 15 8t16 3h72q16 0 16 -16q0 -8 -5 -13l-102 -112q-10 -11 -18 -15t-19 -4h-98q-11 0 -19 4z" />
    <glyph glyph-name="Zdotaccent" unicode="&#x17b;" horiz-adv-x="668" 
d="M621 152q8 -8 8 -19v-106q0 -11 -8 -19t-19 -8h-536q-11 0 -19 8t-8 19v101q0 12 4 19t11 16l320 377h-298q-11 0 -19 8t-8 19v106q0 11 8 19t19 8h516q11 0 19 -8t8 -19v-101q0 -19 -13 -33l-320 -379h316q11 0 19 -8zM409 758q-8 -8 -19 -8h-111q-11 0 -19 8t-8 19v111
q0 11 8 19t19 8h111q11 0 19 -8t8 -19v-111q0 -11 -8 -19z" />
    <glyph glyph-name="a" unicode="a" horiz-adv-x="589" 
d="M356 340q0 55 -58 55q-33 0 -54 -18q-8 -8 -16 -10t-20 -2h-127q-10 0 -16.5 6t-5.5 16q3 31 34.5 64.5t85.5 56t119 22.5q119 0 178.5 -54t59.5 -146v-303q0 -11 -8 -19t-19 -8h-126q-11 0 -19 8t-8 19v28q-26 -32 -62 -48.5t-91 -16.5q-84 0 -131.5 44t-47.5 114
q0 67 52 110t163 62zM264 207q-28 -5 -44 -17.5t-16 -30.5q0 -34 48 -34q44 0 74 28t30 68z" />
    <glyph glyph-name="aacute" unicode="&#xe1;" horiz-adv-x="589" 
d="M356 340q0 55 -58 55q-33 0 -54 -18q-8 -8 -16 -10t-20 -2h-127q-10 0 -16.5 6t-5.5 16q3 31 34.5 64.5t85.5 56t119 22.5q119 0 178.5 -54t59.5 -146v-303q0 -11 -8 -19t-19 -8h-126q-11 0 -19 8t-8 19v28q-26 -32 -62 -48.5t-91 -16.5q-84 0 -131.5 44t-47.5 114
q0 67 52 110t163 62zM264 207q-28 -5 -44 -17.5t-16 -30.5q0 -34 48 -34q44 0 74 28t30 68zM341 751.5q7 3.5 19 3.5h133q9 0 14 -5.5t5 -14.5q0 -7 -5 -12l-135 -111q-11 -9 -19.5 -13t-22.5 -4h-88q-16 0 -16 16q0 8 5 13l92 112q11 12 18 15.5z" />
    <glyph glyph-name="abreve" unicode="&#x103;" horiz-adv-x="589" 
d="M356 340q0 55 -58 55q-33 0 -54 -18q-8 -8 -16 -10t-20 -2h-127q-10 0 -16.5 6t-5.5 16q3 31 34.5 64.5t85.5 56t119 22.5q119 0 178.5 -54t59.5 -146v-303q0 -11 -8 -19t-19 -8h-126q-11 0 -19 8t-8 19v28q-26 -32 -62 -48.5t-91 -16.5q-84 0 -131.5 44t-47.5 114
q0 67 52 110t163 62zM264 207q-28 -5 -44 -17.5t-16 -30.5q0 -34 48 -34q44 0 74 28t30 68zM131 749.5q5 5.5 14 5.5h84q9 0 14 -5.5t5 -13.5q0 -20 11 -35t31 -15t31 15t11 35q0 8 5 13.5t14 5.5h84q9 0 14 -5.5t5 -13.5q0 -36 -16.5 -69t-53 -55t-94.5 -22t-94.5 22
t-53 55t-16.5 69q0 8 5 13.5z" />
    <glyph glyph-name="acircumflex" unicode="&#xe2;" horiz-adv-x="589" 
d="M356 340q0 55 -58 55q-33 0 -54 -18q-8 -8 -16 -10t-20 -2h-127q-10 0 -16.5 6t-5.5 16q3 31 34.5 64.5t85.5 56t119 22.5q119 0 178.5 -54t59.5 -146v-303q0 -11 -8 -19t-19 -8h-126q-11 0 -19 8t-8 19v28q-26 -32 -62 -48.5t-91 -16.5q-84 0 -131.5 44t-47.5 114
q0 67 52 110t163 62zM264 207q-28 -5 -44 -17.5t-16 -30.5q0 -34 48 -34q44 0 74 28t30 68zM353 751q8 -4 18 -15l102 -112q5 -5 5 -13q0 -16 -16 -16h-67q-9 0 -16 3t-15 8l-74 43l-74 -43q-8 -5 -15 -8t-16 -3h-67q-16 0 -16 16q0 8 5 13l102 112q10 11 18 15t19 4h88
q11 0 19 -4z" />
    <glyph glyph-name="adieresis" unicode="&#xe4;" horiz-adv-x="589" 
d="M356 340q0 55 -58 55q-33 0 -54 -18q-8 -8 -16 -10t-20 -2h-127q-10 0 -16.5 6t-5.5 16q3 31 34.5 64.5t85.5 56t119 22.5q119 0 178.5 -54t59.5 -146v-303q0 -11 -8 -19t-19 -8h-126q-11 0 -19 8t-8 19v28q-26 -32 -62 -48.5t-91 -16.5q-84 0 -131.5 44t-47.5 114
q0 67 52 110t163 62zM264 207q-28 -5 -44 -17.5t-16 -30.5q0 -34 48 -34q44 0 74 28t30 68zM247 603q-8 -8 -19 -8h-101q-11 0 -19 8t-8 19v101q0 11 8 19t19 8h101q11 0 19 -8t8 -19v-101q0 -11 -8 -19zM472 603q-8 -8 -19 -8h-101q-11 0 -19 8t-8 19v101q0 11 8 19t19 8
h101q11 0 19 -8t8 -19v-101q0 -11 -8 -19z" />
    <glyph glyph-name="agrave" unicode="&#xe0;" horiz-adv-x="589" 
d="M356 340q0 55 -58 55q-33 0 -54 -18q-8 -8 -16 -10t-20 -2h-127q-10 0 -16.5 6t-5.5 16q3 31 34.5 64.5t85.5 56t119 22.5q119 0 178.5 -54t59.5 -146v-303q0 -11 -8 -19t-19 -8h-126q-11 0 -19 8t-8 19v28q-26 -32 -62 -48.5t-91 -16.5q-84 0 -131.5 44t-47.5 114
q0 67 52 110t163 62zM264 207q-28 -5 -44 -17.5t-16 -30.5q0 -34 48 -34q44 0 74 28t30 68zM369 611q0 -16 -16 -16h-88q-14 0 -22.5 4t-19.5 13l-135 111q-5 5 -5 12q0 9 5 14.5t14 5.5h133q12 0 19 -3.5t18 -15.5l92 -112q5 -5 5 -13z" />
    <glyph glyph-name="amacron" unicode="&#x101;" horiz-adv-x="589" 
d="M356 340q0 55 -58 55q-33 0 -54 -18q-8 -8 -16 -10t-20 -2h-127q-10 0 -16.5 6t-5.5 16q3 31 34.5 64.5t85.5 56t119 22.5q119 0 178.5 -54t59.5 -146v-303q0 -11 -8 -19t-19 -8h-126q-11 0 -19 8t-8 19v28q-26 -32 -62 -48.5t-91 -16.5q-84 0 -131.5 44t-47.5 114
q0 67 52 110t163 62zM264 207q-28 -5 -44 -17.5t-16 -30.5q0 -34 48 -34q44 0 74 28t30 68zM127 603q-8 8 -8 19v86q0 11 8 19t19 8h289q11 0 19 -8t8 -19v-86q0 -11 -8 -19t-19 -8h-289q-11 0 -19 8z" />
    <glyph glyph-name="aogonek" unicode="&#x105;" horiz-adv-x="589" 
d="M356 340q0 55 -58 55q-33 0 -54 -18q-8 -8 -16 -10t-20 -2h-127q-10 0 -16.5 6t-5.5 16q3 31 34.5 64.5t85.5 56t119 22.5q119 0 178.5 -54t59.5 -146v-303q0 -11 -8 -19t-19 -8h-23q-21 -2 -33.5 -18t-12.5 -38q0 -24 14.5 -40t39.5 -16h15q10 0 16 -6t6 -16v-64
q0 -10 -6 -16t-16 -6h-19q-74 0 -118 45.5t-44 118.5q0 46 28 80v31q-26 -32 -62 -48.5t-91 -16.5q-84 0 -131.5 44t-47.5 114q0 67 52 110t163 62zM264 207q-28 -5 -44 -17.5t-16 -30.5q0 -34 48 -34q44 0 74 28t30 68z" />
    <glyph glyph-name="aring" unicode="&#xe5;" horiz-adv-x="589" 
d="M356 340q0 55 -58 55q-33 0 -54 -18q-8 -8 -16 -10t-20 -2h-127q-10 0 -16.5 6t-5.5 16q3 31 34.5 64.5t85.5 56t119 22.5q119 0 178.5 -54t59.5 -146v-303q0 -11 -8 -19t-19 -8h-126q-11 0 -19 8t-8 19v28q-26 -32 -62 -48.5t-91 -16.5q-84 0 -131.5 44t-47.5 114
q0 67 52 110t163 62zM264 207q-28 -5 -44 -17.5t-16 -30.5q0 -34 48 -34q44 0 74 28t30 68zM357.5 744.5q27.5 -25.5 27.5 -64.5t-27.5 -64.5t-67.5 -25.5t-67.5 25.5t-27.5 64.5t27.5 64.5t67.5 25.5t67.5 -25.5zM311.5 658.5q8.5 8.5 8.5 21.5t-8.5 21.5t-21.5 8.5
t-21.5 -8.5t-8.5 -21.5t8.5 -21.5t21.5 -8.5t21.5 8.5z" />
    <glyph glyph-name="atilde" unicode="&#xe3;" horiz-adv-x="589" 
d="M356 340q0 55 -58 55q-33 0 -54 -18q-8 -8 -16 -10t-20 -2h-127q-10 0 -16.5 6t-5.5 16q3 31 34.5 64.5t85.5 56t119 22.5q119 0 178.5 -54t59.5 -146v-303q0 -11 -8 -19t-19 -8h-126q-11 0 -19 8t-8 19v28q-26 -32 -62 -48.5t-91 -16.5q-84 0 -131.5 44t-47.5 114
q0 67 52 110t163 62zM264 207q-28 -5 -44 -17.5t-16 -30.5q0 -34 48 -34q44 0 74 28t30 68zM222 629.5q-6 -5.5 -12 -17.5q-5 -8 -9 -12.5t-10 -4.5h-76q-9 0 -14 5.5t-5 13.5q0 32 12.5 63.5t38 52t61.5 20.5q30 0 49 -7.5t38 -20.5q13 -9 23 -13t22 -4t18 5.5t12 17.5
q5 8 9 12.5t10 4.5h76q9 0 14 -5.5t5 -13.5q0 -31 -14.5 -62.5t-40 -52.5t-57.5 -21q-30 0 -49 7.5t-38 20.5q-13 9 -23 13t-22 4t-18 -5.5z" />
    <glyph glyph-name="ae" unicode="&#xe6;" horiz-adv-x="929" 
d="M563 143q27 -18 63 -18q28 0 46 6t31 17q11 9 16 11.5t17 2.5h130q10 0 16 -6t6 -16q0 -20 -30 -56.5t-89 -65t-143 -28.5q-131 0 -203 75q-39 -39 -84 -57t-116 -18q-97 0 -148 43.5t-51 114.5q0 67 52 110t163 62l117 20q0 55 -58 55q-33 0 -54 -18q-8 -8 -16 -10
t-20 -2h-127q-10 0 -16.5 6t-5.5 16q3 31 34.5 64.5t85.5 56t119 22.5q103 0 166 -45q65 45 162 45q93 0 153.5 -39.5t88.5 -102t28 -130.5v-28q0 -11 -8 -19t-19 -8h-333q0 -42 27 -60zM716 314q-4 34 -27.5 57.5t-62.5 23.5t-62.5 -23.5t-27.5 -57.5h180zM264 207
q-28 -5 -44 -17.5t-16 -30.5q0 -34 48 -34q44 0 74 28t30 68z" />
    <glyph glyph-name="aeacute" unicode="&#x1fd;" horiz-adv-x="929" 
d="M563 143q27 -18 63 -18q28 0 46 6t31 17q11 9 16 11.5t17 2.5h130q10 0 16 -6t6 -16q0 -20 -30 -56.5t-89 -65t-143 -28.5q-131 0 -203 75q-39 -39 -84 -57t-116 -18q-97 0 -148 43.5t-51 114.5q0 67 52 110t163 62l117 20q0 55 -58 55q-33 0 -54 -18q-8 -8 -16 -10
t-20 -2h-127q-10 0 -16.5 6t-5.5 16q3 31 34.5 64.5t85.5 56t119 22.5q103 0 166 -45q65 45 162 45q93 0 153.5 -39.5t88.5 -102t28 -130.5v-28q0 -11 -8 -19t-19 -8h-333q0 -42 27 -60zM716 314q-4 34 -27.5 57.5t-62.5 23.5t-62.5 -23.5t-27.5 -57.5h180zM264 207
q-28 -5 -44 -17.5t-16 -30.5q0 -34 48 -34q44 0 74 28t30 68zM482 751.5q7 3.5 19 3.5h133q9 0 14 -5.5t5 -14.5q0 -7 -5 -12l-135 -111q-11 -9 -19.5 -13t-22.5 -4h-88q-16 0 -16 16q0 8 5 13l92 112q11 12 18 15.5z" />
    <glyph glyph-name="b" unicode="b" horiz-adv-x="634" 
d="M597 260q0 -31 -1 -41q-4 -113 -66.5 -171t-157.5 -58q-41 0 -67.5 8.5t-41 20.5t-30.5 31v-23q0 -11 -8 -19t-19 -8h-121q-11 0 -19 8t-8 19v656q0 11 8 19t19 8h126q11 0 19 -8t8 -19v-213q18 24 50 42t84 18q96 0 158 -58.5t66 -171.5q1 -10 1 -40zM264 351.5
q-22 -23.5 -26 -56.5q-2 -20 -2 -35t2 -35q5 -34 26.5 -57t62.5 -23q44 0 65.5 24t24.5 63q2 20 2 28t-2 28q-3 39 -24.5 63t-65.5 24q-41 0 -63 -23.5z" />
    <glyph glyph-name="c" unicode="c" horiz-adv-x="602" 
d="M244.5 167q24.5 -22 63.5 -22q31 0 49 9t30 27q6 10 12.5 15t16.5 5h131q11 0 19 -7.5t8 -17.5q0 -29 -25 -72.5t-84.5 -78.5t-156.5 -35q-75 0 -135.5 28.5t-97 80.5t-38.5 121l-1 40l1 40q2 69 38.5 121t97 80.5t135.5 28.5q96 0 155 -34t84 -77t27 -73q1 -11 -7.5 -19
t-19.5 -8h-131q-10 0 -16.5 5t-12.5 15q-12 18 -30 27t-49 9q-39 0 -63.5 -22t-27.5 -58q-1 -10 -1 -35t1 -35q3 -36 27.5 -58z" />
    <glyph glyph-name="cacute" unicode="&#x107;" horiz-adv-x="602" 
d="M244.5 167q24.5 -22 63.5 -22q31 0 49 9t30 27q6 10 12.5 15t16.5 5h131q11 0 19 -7.5t8 -17.5q0 -29 -25 -72.5t-84.5 -78.5t-156.5 -35q-75 0 -135.5 28.5t-97 80.5t-38.5 121l-1 40l1 40q2 69 38.5 121t97 80.5t135.5 28.5q96 0 155 -34t84 -77t27 -73q1 -11 -7.5 -19
t-19.5 -8h-131q-10 0 -16.5 5t-12.5 15q-12 18 -30 27t-49 9q-39 0 -63.5 -22t-27.5 -58q-1 -10 -1 -35t1 -35q3 -36 27.5 -58zM351 751.5q7 3.5 19 3.5h133q9 0 14 -5.5t5 -14.5q0 -7 -5 -12l-135 -111q-11 -9 -19.5 -13t-22.5 -4h-88q-16 0 -16 16q0 8 5 13l92 112
q11 12 18 15.5z" />
    <glyph glyph-name="ccaron" unicode="&#x10d;" horiz-adv-x="602" 
d="M244.5 167q24.5 -22 63.5 -22q31 0 49 9t30 27q6 10 12.5 15t16.5 5h131q11 0 19 -7.5t8 -17.5q0 -29 -25 -72.5t-84.5 -78.5t-156.5 -35q-75 0 -135.5 28.5t-97 80.5t-38.5 121l-1 40l1 40q2 69 38.5 121t97 80.5t135.5 28.5q96 0 155 -34t84 -77t27 -73q1 -11 -7.5 -19
t-19.5 -8h-131q-10 0 -16.5 5t-12.5 15q-12 18 -30 27t-49 9q-39 0 -63.5 -22t-27.5 -58q-1 -10 -1 -35t1 -35q3 -36 27.5 -58zM242 599q-8 4 -18 15l-102 112q-5 5 -5 13q0 16 16 16h67q9 0 16 -3t15 -8l74 -43l74 43q8 5 15 8t16 3h67q16 0 16 -16q0 -8 -5 -13l-102 -112
q-10 -11 -18 -15t-19 -4h-88q-11 0 -19 4z" />
    <glyph glyph-name="ccedilla" unicode="&#xe7;" horiz-adv-x="602" 
d="M244.5 167q24.5 -22 63.5 -22q31 0 49 9t30 27q6 10 12.5 15t16.5 5h131q11 0 19 -7.5t8 -17.5q0 -29 -25 -72.5t-84.5 -78.5t-156.5 -35h-3l-21 -44q16 10 37 10q37 0 56.5 -25t19.5 -63q0 -37 -27.5 -62.5t-71.5 -25.5q-27 0 -54.5 13.5t-27.5 27.5q0 6 5 10l18 16
q8 8 15 8q4 0 16.5 -7t27.5 -7q33 0 33 27t-33 27q-6 0 -19.5 -3.5t-19.5 -3.5q-9 0 -15 6l-18 21l-5.5 7.5t-2.5 7.5q0 6 6 18l23 48q-91 15 -149 75t-61 149l-1 40l1 40q2 69 38.5 121t97 80.5t135.5 28.5q96 0 155 -34t84 -77t27 -73q1 -11 -7.5 -19t-19.5 -8h-131
q-10 0 -16.5 5t-12.5 15q-12 18 -30 27t-49 9q-39 0 -63.5 -22t-27.5 -58q-1 -10 -1 -35t1 -35q3 -36 27.5 -58z" />
    <glyph glyph-name="ccircumflex" unicode="&#x109;" horiz-adv-x="602" 
d="M244.5 167q24.5 -22 63.5 -22q31 0 49 9t30 27q6 10 12.5 15t16.5 5h131q11 0 19 -7.5t8 -17.5q0 -29 -25 -72.5t-84.5 -78.5t-156.5 -35q-75 0 -135.5 28.5t-97 80.5t-38.5 121l-1 40l1 40q2 69 38.5 121t97 80.5t135.5 28.5q96 0 155 -34t84 -77t27 -73q1 -11 -7.5 -19
t-19.5 -8h-131q-10 0 -16.5 5t-12.5 15q-12 18 -30 27t-49 9q-39 0 -63.5 -22t-27.5 -58q-1 -10 -1 -35t1 -35q3 -36 27.5 -58zM368 751q8 -4 18 -15l102 -112q5 -5 5 -13q0 -16 -16 -16h-67q-9 0 -16 3t-15 8l-74 43l-74 -43q-8 -5 -15 -8t-16 -3h-67q-16 0 -16 16
q0 8 5 13l102 112q10 11 18 15t19 4h88q11 0 19 -4z" />
    <glyph glyph-name="cdotaccent" unicode="&#x10b;" horiz-adv-x="602" 
d="M244.5 167q24.5 -22 63.5 -22q31 0 49 9t30 27q6 10 12.5 15t16.5 5h131q11 0 19 -7.5t8 -17.5q0 -29 -25 -72.5t-84.5 -78.5t-156.5 -35q-75 0 -135.5 28.5t-97 80.5t-38.5 121l-1 40l1 40q2 69 38.5 121t97 80.5t135.5 28.5q96 0 155 -34t84 -77t27 -73q1 -11 -7.5 -19
t-19.5 -8h-131q-10 0 -16.5 5t-12.5 15q-12 18 -30 27t-49 9q-39 0 -63.5 -22t-27.5 -58q-1 -10 -1 -35t1 -35q3 -36 27.5 -58zM380 603q-8 -8 -19 -8h-111q-11 0 -19 8t-8 19v111q0 11 8 19t19 8h111q11 0 19 -8t8 -19v-111q0 -11 -8 -19z" />
    <glyph glyph-name="d" unicode="d" horiz-adv-x="634" 
d="M396 683q0 11 8 19t19 8h126q11 0 19 -8t8 -19v-656q0 -11 -8 -19t-19 -8h-121q-11 0 -19 8t-8 19v23q-16 -19 -30.5 -31t-41 -20.5t-67.5 -8.5q-95 0 -157.5 58t-66.5 171l-1 41l1 40q4 113 66 171.5t158 58.5q52 0 84 -18t50 -42v213zM241.5 169q21.5 -24 65.5 -24
q41 0 62.5 23t26.5 57q2 10 2 35t-2 35q-4 33 -26 56.5t-63 23.5q-44 0 -65.5 -24t-24.5 -63q-1 -10 -1 -28t1 -28q3 -39 24.5 -63z" />
    <glyph glyph-name="eth" unicode="&#xf0;" horiz-adv-x="592" 
d="M159 17q-58 27 -92.5 81t-34.5 132t34 132t92.5 81t129.5 27q14 0 40 -2q-14 31 -38 63l-93 -37q-7 -3 -11 -3q-9 0 -15 6t-6 15v48q0 14 5 21.5t17 11.5l31 12q-18 16 -63 53q-17 13 -17 22t5.5 14.5t14.5 5.5h156q20 0 36 -13q22 -19 23 -20l76 30q8 3 11 3q9 0 15 -6
t6 -15v-48q0 -13 -5 -20.5t-17 -12.5l-13 -5q55 -66 81.5 -149.5t26.5 -213.5q0 -78 -36.5 -132t-96.5 -81t-132 -27t-130 27zM364 230q0 85 -76 85t-76 -85t76 -85t76 85z" />
    <glyph glyph-name="dcaron" unicode="&#x10f;" horiz-adv-x="750" 
d="M396 683q0 11 8 19t19 8h126q11 0 19 -8t8 -19v-656q0 -11 -8 -19t-19 -8h-121q-11 0 -19 8t-8 19v23q-16 -19 -30.5 -31t-41 -20.5t-67.5 -8.5q-95 0 -157.5 58t-66.5 171l-1 41l1 40q4 113 66 171.5t158 58.5q52 0 84 -18t50 -42v213zM241.5 169q21.5 -24 65.5 -24
q41 0 62.5 23t26.5 57q2 10 2 35t-2 35q-4 33 -26 56.5t-63 23.5q-44 0 -65.5 -24t-24.5 -63q-1 -10 -1 -28t1 -28q3 -39 24.5 -63zM665.5 698.5q10.5 11.5 29.5 11.5h115q9 0 15.5 -6.5t6.5 -15.5q0 -4 -1 -7l-55 -139q-12 -32 -43 -32h-81q-9 0 -15.5 6.5t-6.5 15.5v2
l22 137q3 16 13.5 27.5z" />
    <glyph glyph-name="dcroat" unicode="&#x111;" horiz-adv-x="629" 
d="M391 552h-53q-11 0 -19 8t-8 19v43q0 11 8 19t19 8h53v34q0 11 8 19t19 8h126q11 0 19 -8t8 -19v-34h53q11 0 19 -8t8 -19v-43q0 -11 -8 -19t-19 -8h-53v-525q0 -11 -8 -19t-19 -8h-121q-11 0 -19 8t-8 19v23q-17 -20 -30.5 -31.5t-39 -20t-66.5 -8.5q-95 0 -156 58
t-65 171l-1 41l1 40q4 113 65 171.5t156 58.5q88 0 131 -60v82zM235.5 176.5q18.5 -31.5 69.5 -31.5q40 0 60.5 23t25.5 57q2 10 2 35t-2 35q-4 34 -24.5 57t-61.5 23q-80 0 -87 -87q-1 -10 -1 -28q0 -52 18.5 -83.5z" />
    <glyph glyph-name="e" unicode="e" horiz-adv-x="607" 
d="M241 143q27 -18 63 -18q28 0 46 6t31 17q11 9 16 11.5t17 2.5h130q10 0 16 -6t6 -16q0 -20 -30 -56.5t-89 -65t-143 -28.5q-129 0 -199.5 71.5t-70.5 198.5q0 79 31.5 140t92.5 95.5t146 34.5q93 0 153.5 -39.5t88.5 -102t28 -130.5v-28q0 -11 -8 -19t-19 -8h-333
q0 -42 27 -60zM394 314q-4 34 -27.5 57.5t-62.5 23.5t-62.5 -23.5t-27.5 -57.5h180z" />
    <glyph glyph-name="eacute" unicode="&#xe9;" horiz-adv-x="607" 
d="M241 143q27 -18 63 -18q28 0 46 6t31 17q11 9 16 11.5t17 2.5h130q10 0 16 -6t6 -16q0 -20 -30 -56.5t-89 -65t-143 -28.5q-129 0 -199.5 71.5t-70.5 198.5q0 79 31.5 140t92.5 95.5t146 34.5q93 0 153.5 -39.5t88.5 -102t28 -130.5v-28q0 -11 -8 -19t-19 -8h-333
q0 -42 27 -60zM394 314q-4 34 -27.5 57.5t-62.5 23.5t-62.5 -23.5t-27.5 -57.5h180zM343 751.5q7 3.5 19 3.5h133q9 0 14 -5.5t5 -14.5q0 -7 -5 -12l-135 -111q-11 -9 -19.5 -13t-22.5 -4h-88q-16 0 -16 16q0 8 5 13l92 112q11 12 18 15.5z" />
    <glyph glyph-name="ebreve" unicode="&#x115;" horiz-adv-x="607" 
d="M241 143q27 -18 63 -18q28 0 46 6t31 17q11 9 16 11.5t17 2.5h130q10 0 16 -6t6 -16q0 -20 -30 -56.5t-89 -65t-143 -28.5q-129 0 -199.5 71.5t-70.5 198.5q0 79 31.5 140t92.5 95.5t146 34.5q93 0 153.5 -39.5t88.5 -102t28 -130.5v-28q0 -11 -8 -19t-19 -8h-333
q0 -42 27 -60zM394 314q-4 34 -27.5 57.5t-62.5 23.5t-62.5 -23.5t-27.5 -57.5h180zM145 749.5q5 5.5 14 5.5h84q9 0 14 -5.5t5 -13.5q0 -20 11 -35t31 -15t31 15t11 35q0 8 5 13.5t14 5.5h84q9 0 14 -5.5t5 -13.5q0 -36 -16.5 -69t-53 -55t-94.5 -22t-94.5 22t-53 55
t-16.5 69q0 8 5 13.5z" />
    <glyph glyph-name="ecaron" unicode="&#x11b;" horiz-adv-x="607" 
d="M241 143q27 -18 63 -18q28 0 46 6t31 17q11 9 16 11.5t17 2.5h130q10 0 16 -6t6 -16q0 -20 -30 -56.5t-89 -65t-143 -28.5q-129 0 -199.5 71.5t-70.5 198.5q0 79 31.5 140t92.5 95.5t146 34.5q93 0 153.5 -39.5t88.5 -102t28 -130.5v-28q0 -11 -8 -19t-19 -8h-333
q0 -42 27 -60zM394 314q-4 34 -27.5 57.5t-62.5 23.5t-62.5 -23.5t-27.5 -57.5h180zM241 599q-8 4 -18 15l-102 112q-5 5 -5 13q0 16 16 16h67q9 0 16 -3t15 -8l74 -43l74 43q8 5 15 8t16 3h67q16 0 16 -16q0 -8 -5 -13l-102 -112q-10 -11 -18 -15t-19 -4h-88q-11 0 -19 4z
" />
    <glyph glyph-name="ecircumflex" unicode="&#xea;" horiz-adv-x="607" 
d="M241 143q27 -18 63 -18q28 0 46 6t31 17q11 9 16 11.5t17 2.5h130q10 0 16 -6t6 -16q0 -20 -30 -56.5t-89 -65t-143 -28.5q-129 0 -199.5 71.5t-70.5 198.5q0 79 31.5 140t92.5 95.5t146 34.5q93 0 153.5 -39.5t88.5 -102t28 -130.5v-28q0 -11 -8 -19t-19 -8h-333
q0 -42 27 -60zM394 314q-4 34 -27.5 57.5t-62.5 23.5t-62.5 -23.5t-27.5 -57.5h180zM367 751q8 -4 18 -15l102 -112q5 -5 5 -13q0 -16 -16 -16h-67q-9 0 -16 3t-15 8l-74 43l-74 -43q-8 -5 -15 -8t-16 -3h-67q-16 0 -16 16q0 8 5 13l102 112q10 11 18 15t19 4h88q11 0 19 -4
z" />
    <glyph glyph-name="edieresis" unicode="&#xeb;" horiz-adv-x="607" 
d="M241 143q27 -18 63 -18q28 0 46 6t31 17q11 9 16 11.5t17 2.5h130q10 0 16 -6t6 -16q0 -20 -30 -56.5t-89 -65t-143 -28.5q-129 0 -199.5 71.5t-70.5 198.5q0 79 31.5 140t92.5 95.5t146 34.5q93 0 153.5 -39.5t88.5 -102t28 -130.5v-28q0 -11 -8 -19t-19 -8h-333
q0 -42 27 -60zM394 314q-4 34 -27.5 57.5t-62.5 23.5t-62.5 -23.5t-27.5 -57.5h180zM261 603q-8 -8 -19 -8h-101q-11 0 -19 8t-8 19v101q0 11 8 19t19 8h101q11 0 19 -8t8 -19v-101q0 -11 -8 -19zM486 603q-8 -8 -19 -8h-101q-11 0 -19 8t-8 19v101q0 11 8 19t19 8h101
q11 0 19 -8t8 -19v-101q0 -11 -8 -19z" />
    <glyph glyph-name="edotaccent" unicode="&#x117;" horiz-adv-x="607" 
d="M241 143q27 -18 63 -18q28 0 46 6t31 17q11 9 16 11.5t17 2.5h130q10 0 16 -6t6 -16q0 -20 -30 -56.5t-89 -65t-143 -28.5q-129 0 -199.5 71.5t-70.5 198.5q0 79 31.5 140t92.5 95.5t146 34.5q93 0 153.5 -39.5t88.5 -102t28 -130.5v-28q0 -11 -8 -19t-19 -8h-333
q0 -42 27 -60zM394 314q-4 34 -27.5 57.5t-62.5 23.5t-62.5 -23.5t-27.5 -57.5h180zM379 603q-8 -8 -19 -8h-111q-11 0 -19 8t-8 19v111q0 11 8 19t19 8h111q11 0 19 -8t8 -19v-111q0 -11 -8 -19z" />
    <glyph glyph-name="egrave" unicode="&#xe8;" horiz-adv-x="607" 
d="M241 143q27 -18 63 -18q28 0 46 6t31 17q11 9 16 11.5t17 2.5h130q10 0 16 -6t6 -16q0 -20 -30 -56.5t-89 -65t-143 -28.5q-129 0 -199.5 71.5t-70.5 198.5q0 79 31.5 140t92.5 95.5t146 34.5q93 0 153.5 -39.5t88.5 -102t28 -130.5v-28q0 -11 -8 -19t-19 -8h-333
q0 -42 27 -60zM394 314q-4 34 -27.5 57.5t-62.5 23.5t-62.5 -23.5t-27.5 -57.5h180zM374 611q0 -16 -16 -16h-88q-14 0 -22.5 4t-19.5 13l-135 111q-5 5 -5 12q0 9 5 14.5t14 5.5h133q12 0 19 -3.5t18 -15.5l92 -112q5 -5 5 -13z" />
    <glyph glyph-name="emacron" unicode="&#x113;" horiz-adv-x="607" 
d="M241 143q27 -18 63 -18q28 0 46 6t31 17q11 9 16 11.5t17 2.5h130q10 0 16 -6t6 -16q0 -20 -30 -56.5t-89 -65t-143 -28.5q-129 0 -199.5 71.5t-70.5 198.5q0 79 31.5 140t92.5 95.5t146 34.5q93 0 153.5 -39.5t88.5 -102t28 -130.5v-28q0 -11 -8 -19t-19 -8h-333
q0 -42 27 -60zM394 314q-4 34 -27.5 57.5t-62.5 23.5t-62.5 -23.5t-27.5 -57.5h180zM141 603q-8 8 -8 19v86q0 11 8 19t19 8h289q11 0 19 -8t8 -19v-86q0 -11 -8 -19t-19 -8h-289q-11 0 -19 8z" />
    <glyph glyph-name="eogonek" unicode="&#x119;" horiz-adv-x="607" 
d="M241 143q27 -18 63 -18q28 0 46 6t31 17q11 9 16 11.5t17 2.5h130q10 0 16 -6t6 -16q0 -17 -24 -49t-72 -60t-116 -38q-27 -4 -40 -15.5t-13 -33.5q0 -24 14.5 -40t39.5 -16h15q10 0 16 -6t6 -16v-64q0 -10 -6 -16t-16 -6h-19q-74 0 -118 45.5t-44 118.5q0 34 9 61
q-80 25 -122 91t-42 164q0 79 31.5 140t92.5 95.5t146 34.5q93 0 153.5 -39.5t88.5 -102t28 -130.5v-28q0 -11 -8 -19t-19 -8h-333q0 -42 27 -60zM394 314q-4 34 -27.5 57.5t-62.5 23.5t-62.5 -23.5t-27.5 -57.5h180z" />
    <glyph glyph-name="f" unicode="f" horiz-adv-x="460" 
d="M420 520q11 0 19 -8t8 -19v-101q0 -11 -8 -19t-19 -8h-123v-338q0 -11 -8 -19t-19 -8h-126q-11 0 -19 8t-8 19v338h-69q-11 0 -19 8t-8 19v101q0 11 8 19t19 8h69v27q0 90 61 141.5t157 51.5h95q11 0 19 -8t8 -19v-101q0 -11 -8 -19t-19 -8h-90q-43 0 -43 -43v-22h123z
" />
    <glyph glyph-name="g" unicode="g" horiz-adv-x="634" 
d="M401 70q-16 -19 -30.5 -31t-41 -20.5t-67.5 -8.5q-95 0 -157.5 57.5t-66.5 166.5l-1 36l1 35q4 110 66.5 167.5t157.5 57.5q101 0 144 -60v23q0 11 8 19t19 8h116q11 0 19 -8t8 -19v-487q0 -109 -75 -167.5t-198 -58.5q-95 0 -152 29.5t-79.5 69.5t-24.5 77q-1 11 7.5 19
t19.5 8h130q21 0 31 -20q8 -15 23.5 -24t46.5 -9q41 0 68.5 18t27.5 52v70zM242.5 187q22.5 -22 64.5 -22q38 0 61 21t28 53q2 10 2 32q0 21 -2 31q-4 31 -27 52t-62 21q-41 0 -64 -21.5t-26 -58.5q-1 -10 -1 -24q0 -15 1 -25q3 -37 25.5 -59z" />
    <glyph glyph-name="gbreve" unicode="&#x11f;" horiz-adv-x="634" 
d="M401 70q-16 -19 -30.5 -31t-41 -20.5t-67.5 -8.5q-95 0 -157.5 57.5t-66.5 166.5l-1 36l1 35q4 110 66.5 167.5t157.5 57.5q101 0 144 -60v23q0 11 8 19t19 8h116q11 0 19 -8t8 -19v-487q0 -109 -75 -167.5t-198 -58.5q-95 0 -152 29.5t-79.5 69.5t-24.5 77q-1 11 7.5 19
t19.5 8h130q21 0 31 -20q8 -15 23.5 -24t46.5 -9q41 0 68.5 18t27.5 52v70zM242.5 187q22.5 -22 64.5 -22q38 0 61 21t28 53q2 10 2 32q0 21 -2 31q-4 31 -27 52t-62 21q-41 0 -64 -21.5t-26 -58.5q-1 -10 -1 -24q0 -15 1 -25q3 -37 25.5 -59zM147 749.5q5 5.5 14 5.5h84
q9 0 14 -5.5t5 -13.5q0 -20 11 -35t31 -15t31 15t11 35q0 8 5 13.5t14 5.5h84q9 0 14 -5.5t5 -13.5q0 -36 -16.5 -69t-53 -55t-94.5 -22t-94.5 22t-53 55t-16.5 69q0 8 5 13.5z" />
    <glyph glyph-name="gcircumflex" unicode="&#x11d;" horiz-adv-x="634" 
d="M401 70q-16 -19 -30.5 -31t-41 -20.5t-67.5 -8.5q-95 0 -157.5 57.5t-66.5 166.5l-1 36l1 35q4 110 66.5 167.5t157.5 57.5q101 0 144 -60v23q0 11 8 19t19 8h116q11 0 19 -8t8 -19v-487q0 -109 -75 -167.5t-198 -58.5q-95 0 -152 29.5t-79.5 69.5t-24.5 77q-1 11 7.5 19
t19.5 8h130q21 0 31 -20q8 -15 23.5 -24t46.5 -9q41 0 68.5 18t27.5 52v70zM242.5 187q22.5 -22 64.5 -22q38 0 61 21t28 53q2 10 2 32q0 21 -2 31q-4 31 -27 52t-62 21q-41 0 -64 -21.5t-26 -58.5q-1 -10 -1 -24q0 -15 1 -25q3 -37 25.5 -59zM369 751q8 -4 18 -15l102 -112
q5 -5 5 -13q0 -16 -16 -16h-67q-9 0 -16 3t-15 8l-74 43l-74 -43q-8 -5 -15 -8t-16 -3h-67q-16 0 -16 16q0 8 5 13l102 112q10 11 18 15t19 4h88q11 0 19 -4z" />
    <glyph glyph-name="gcommaaccent" unicode="&#x123;" horiz-adv-x="634" 
d="M374.5 606.5q-10.5 -11.5 -29.5 -11.5h-115q-9 0 -15.5 6.5t-6.5 15.5q0 4 1 7l55 139q12 32 43 32h81q9 0 15.5 -6.5t6.5 -15.5v-2l-22 -137q-3 -16 -13.5 -27.5zM401 70q-16 -19 -30.5 -31t-41 -20.5t-67.5 -8.5q-95 0 -157.5 57.5t-66.5 166.5l-1 36l1 35
q4 110 66.5 167.5t157.5 57.5q101 0 144 -60v23q0 11 8 19t19 8h116q11 0 19 -8t8 -19v-487q0 -109 -75 -167.5t-198 -58.5q-95 0 -152 29.5t-79.5 69.5t-24.5 77q-1 11 7.5 19t19.5 8h130q21 0 31 -20q8 -15 23.5 -24t46.5 -9q41 0 68.5 18t27.5 52v70zM242.5 187
q22.5 -22 64.5 -22q38 0 61 21t28 53q2 10 2 32q0 21 -2 31q-4 31 -27 52t-62 21q-41 0 -64 -21.5t-26 -58.5q-1 -10 -1 -24q0 -15 1 -25q3 -37 25.5 -59z" />
    <glyph glyph-name="gdotaccent" unicode="&#x121;" horiz-adv-x="634" 
d="M401 70q-16 -19 -30.5 -31t-41 -20.5t-67.5 -8.5q-95 0 -157.5 57.5t-66.5 166.5l-1 36l1 35q4 110 66.5 167.5t157.5 57.5q101 0 144 -60v23q0 11 8 19t19 8h116q11 0 19 -8t8 -19v-487q0 -109 -75 -167.5t-198 -58.5q-95 0 -152 29.5t-79.5 69.5t-24.5 77q-1 11 7.5 19
t19.5 8h130q21 0 31 -20q8 -15 23.5 -24t46.5 -9q41 0 68.5 18t27.5 52v70zM242.5 187q22.5 -22 64.5 -22q38 0 61 21t28 53q2 10 2 32q0 21 -2 31q-4 31 -27 52t-62 21q-41 0 -64 -21.5t-26 -58.5q-1 -10 -1 -24q0 -15 1 -25q3 -37 25.5 -59zM381 603q-8 -8 -19 -8h-111
q-11 0 -19 8t-8 19v111q0 11 8 19t19 8h111q11 0 19 -8t8 -19v-111q0 -11 -8 -19z" />
    <glyph glyph-name="h" unicode="h" horiz-adv-x="644" 
d="M583 8q-8 -8 -19 -8h-126q-11 0 -19 8t-8 19v253q0 44 -21.5 69.5t-65.5 25.5q-43 0 -64.5 -25t-21.5 -70v-253q0 -11 -8 -19t-19 -8h-126q-11 0 -19 8t-8 19v656q0 11 8 19t19 8h126q11 0 19 -8t8 -19v-213q19 24 56 42t80 18q101 0 159 -57t58 -171v-275q0 -11 -8 -19z
" />
    <glyph glyph-name="hbar" unicode="&#x127;" horiz-adv-x="644" 
d="M583 8q-8 -8 -19 -8h-126q-11 0 -19 8t-8 19v253q0 44 -21.5 69.5t-65.5 25.5q-43 0 -64.5 -25t-21.5 -70v-253q0 -11 -8 -19t-19 -8h-126q-11 0 -19 8t-8 19v520h-53q-11 0 -19 8t-8 19v43q0 11 8 19t19 8h53v39q0 11 8 19t19 8h126q11 0 19 -8t8 -19v-39h53q11 0 19 -8
t8 -19v-43q0 -11 -8 -19t-19 -8h-53v-77q19 24 56 42t80 18q101 0 159 -57t58 -171v-275q0 -11 -8 -19z" />
    <glyph glyph-name="hcircumflex" unicode="&#x125;" horiz-adv-x="644" 
d="M583 8q-8 -8 -19 -8h-126q-11 0 -19 8t-8 19v253q0 44 -21.5 69.5t-65.5 25.5q-43 0 -64.5 -25t-21.5 -70v-253q0 -11 -8 -19t-19 -8h-126q-11 0 -19 8t-8 19v656q0 11 8 19t19 8h126q11 0 19 -8t8 -19v-213q19 24 56 42t80 18q101 0 159 -57t58 -171v-275q0 -11 -8 -19z
M387 906q8 -4 18 -15l102 -112q5 -5 5 -13q0 -16 -16 -16h-67q-9 0 -16 3t-15 8l-74 43l-74 -43q-8 -5 -15 -8t-16 -3h-67q-16 0 -16 16q0 8 5 13l102 112q10 11 18 15t19 4h88q11 0 19 -4z" />
    <glyph glyph-name="i" unicode="i" horiz-adv-x="296" 
d="M230 583q-8 -8 -19 -8h-126q-11 0 -19 8t-8 19v101q0 11 8 19t19 8h126q11 0 19 -8t8 -19v-101q0 -11 -8 -19zM230 8q-8 -8 -19 -8h-126q-11 0 -19 8t-8 19v466q0 11 8 19t19 8h126q11 0 19 -8t8 -19v-466q0 -11 -8 -19z" />
    <glyph glyph-name="dotlessi" unicode="&#x131;" horiz-adv-x="296" 
d="M230 8q-8 -8 -19 -8h-126q-11 0 -19 8t-8 19v466q0 11 8 19t19 8h126q11 0 19 -8t8 -19v-466q0 -11 -8 -19z" />
    <glyph glyph-name="iacute" unicode="&#xed;" horiz-adv-x="296" 
d="M230 8q-8 -8 -19 -8h-126q-11 0 -19 8t-8 19v466q0 11 8 19t19 8h126q11 0 19 -8t8 -19v-466q0 -11 -8 -19zM190 751.5q7 3.5 19 3.5h133q9 0 14 -5.5t5 -14.5q0 -7 -5 -12l-135 -111q-11 -9 -19.5 -13t-22.5 -4h-88q-16 0 -16 16q0 8 5 13l92 112q11 12 18 15.5z" />
    <glyph glyph-name="ibreve" unicode="&#x12d;" horiz-adv-x="296" 
d="M230 8q-8 -8 -19 -8h-126q-11 0 -19 8t-8 19v466q0 11 8 19t19 8h126q11 0 19 -8t8 -19v-466q0 -11 -8 -19zM-11 749.5q5 5.5 14 5.5h84q9 0 14 -5.5t5 -13.5q0 -20 11 -35t31 -15t31 15t11 35q0 8 5 13.5t14 5.5h84q9 0 14 -5.5t5 -13.5q0 -36 -16.5 -69t-53 -55
t-94.5 -22t-94.5 22t-53 55t-16.5 69q0 8 5 13.5z" />
    <glyph glyph-name="icircumflex" unicode="&#xee;" horiz-adv-x="296" 
d="M230 8q-8 -8 -19 -8h-126q-11 0 -19 8t-8 19v466q0 11 8 19t19 8h126q11 0 19 -8t8 -19v-466q0 -11 -8 -19zM211 751q8 -4 18 -15l102 -112q5 -5 5 -13q0 -16 -16 -16h-67q-9 0 -16 3t-15 8l-74 43l-74 -43q-8 -5 -15 -8t-16 -3h-67q-16 0 -16 16q0 8 5 13l102 112
q10 11 18 15t19 4h88q11 0 19 -4z" />
    <glyph glyph-name="idieresis" unicode="&#xef;" horiz-adv-x="296" 
d="M230 8q-8 -8 -19 -8h-126q-11 0 -19 8t-8 19v466q0 11 8 19t19 8h126q11 0 19 -8t8 -19v-466q0 -11 -8 -19zM105 603q-8 -8 -19 -8h-101q-11 0 -19 8t-8 19v101q0 11 8 19t19 8h101q11 0 19 -8t8 -19v-101q0 -11 -8 -19zM330 603q-8 -8 -19 -8h-101q-11 0 -19 8t-8 19
v101q0 11 8 19t19 8h101q11 0 19 -8t8 -19v-101q0 -11 -8 -19z" />
    <glyph glyph-name="igrave" unicode="&#xec;" horiz-adv-x="296" 
d="M230 8q-8 -8 -19 -8h-126q-11 0 -19 8t-8 19v466q0 11 8 19t19 8h126q11 0 19 -8t8 -19v-466q0 -11 -8 -19zM226 611q0 -16 -16 -16h-88q-14 0 -22.5 4t-19.5 13l-135 111q-5 5 -5 12q0 9 5 14.5t14 5.5h133q12 0 19 -3.5t18 -15.5l92 -112q5 -5 5 -13z" />
    <glyph glyph-name="ij" unicode="&#x133;" horiz-adv-x="603" 
d="M230 583q-8 -8 -19 -8h-126q-11 0 -19 8t-8 19v101q0 11 8 19t19 8h126q11 0 19 -8t8 -19v-101q0 -11 -8 -19zM230 8q-8 -8 -19 -8h-126q-11 0 -19 8t-8 19v466q0 11 8 19t19 8h126q11 0 19 -8t8 -19v-466q0 -11 -8 -19zM537 583q-8 -8 -19 -8h-126q-11 0 -19 8t-8 19
v101q0 11 8 19t19 8h126q11 0 19 -8t8 -19v-101q0 -11 -8 -19zM373 512q8 8 19 8h126q11 0 19 -8t8 -19v-485q0 -91 -59 -144.5t-154 -53.5h-50q-11 0 -19 8t-8 19v96q0 12 8 22t19 10h40q22 0 32.5 13.5t10.5 34.5v480q0 11 8 19z" />
    <glyph glyph-name="imacron" unicode="&#x12b;" horiz-adv-x="296" 
d="M230 8q-8 -8 -19 -8h-126q-11 0 -19 8t-8 19v466q0 11 8 19t19 8h126q11 0 19 -8t8 -19v-466q0 -11 -8 -19zM-15 603q-8 8 -8 19v86q0 11 8 19t19 8h289q11 0 19 -8t8 -19v-86q0 -11 -8 -19t-19 -8h-289q-11 0 -19 8z" />
    <glyph glyph-name="iogonek" unicode="&#x12f;" horiz-adv-x="297" 
d="M231 583q-8 -8 -19 -8h-126q-11 0 -19 8t-8 19v101q0 11 8 19t19 8h126q11 0 19 -8t8 -19v-101q0 -11 -8 -19zM231 8q-8 -8 -19 -8h-10q-25 0 -39.5 -16t-14.5 -40t14.5 -40t39.5 -16h15q10 0 16 -6t6 -16v-64q0 -10 -6 -16t-16 -6h-19q-74 0 -118 45.5t-44 118.5
q0 51 23 91v458q0 11 8 19t19 8h126q11 0 19 -8t8 -19v-466q0 -11 -8 -19z" />
    <glyph glyph-name="itilde" unicode="&#x129;" horiz-adv-x="296" 
d="M104.5 599.5q-7.5 -5.5 -11 -11.5t-4.5 -8q-5 -9 -15 -9h-84q-8 0 -13.5 5.5t-5.5 12.5q0 28 13 62t42.5 59.5t75.5 25.5q24 0 42 -6t36 -17q10 -5 20.5 -9.5t19.5 -4.5q17 0 24.5 5.5t11 11.5t4.5 8q5 9 15 9h84q9 0 14 -5.5t5 -13.5q0 -32 -13 -65.5t-42.5 -57
t-75.5 -23.5q-19 0 -35.5 6t-37.5 16q-30 15 -45 15q-17 0 -24.5 -5.5zM230 8q-8 -8 -19 -8h-126q-11 0 -19 8t-8 19v466q0 11 8 19t19 8h126q11 0 19 -8t8 -19v-466q0 -11 -8 -19z" />
    <glyph glyph-name="j" unicode="j" horiz-adv-x="307" 
d="M241 583q-8 -8 -19 -8h-126q-11 0 -19 8t-8 19v101q0 11 8 19t19 8h126q11 0 19 -8t8 -19v-101q0 -11 -8 -19zM77 512q8 8 19 8h126q11 0 19 -8t8 -19v-485q0 -91 -59 -144.5t-154 -53.5h-50q-11 0 -19 8t-8 19v96q0 12 8 22t19 10h40q22 0 32.5 13.5t10.5 34.5v480
q0 11 8 19z" />
    <glyph glyph-name="uni0237" unicode="&#x237;" horiz-adv-x="357" 
d="M46 365q-11 0 -19 8t-8 19v101q0 11 8 19t19 8h226q11 0 19 -8t8 -19v-485q0 -91 -59 -144.5t-154 -53.5h-50q-11 0 -19 8t-8 19v96q0 12 8 22t19 10h40q22 0 32.5 13.5t10.5 34.5v352h-73z" />
    <glyph glyph-name="jcircumflex" unicode="&#x135;" horiz-adv-x="357" 
d="M46 365q-11 0 -19 8t-8 19v101q0 11 8 19t19 8h226q11 0 19 -8t8 -19v-485q0 -91 -59 -144.5t-154 -53.5h-50q-11 0 -19 8t-8 19v96q0 12 8 22t19 10h40q22 0 32.5 13.5t10.5 34.5v352h-73zM234 751q8 -4 18 -15l102 -112q5 -5 5 -13q0 -16 -16 -16h-67q-9 0 -16 3t-15 8
l-74 43l-74 -43q-8 -5 -15 -8t-16 -3h-67q-16 0 -16 16q0 8 5 13l102 112q10 11 18 15t19 4h88q11 0 19 -4z" />
    <glyph glyph-name="k" unicode="k" horiz-adv-x="611" 
d="M370 503q17 17 39 17h147q10 0 17 -7t7 -17q0 -5 -2 -9t-9 -11l-178 -198l210 -235q10 -11 10 -19q0 -10 -7 -17t-17 -7h-149q-26 0 -41 17l-159 179v-169q0 -11 -8 -19t-19 -8h-126q-11 0 -19 8t-8 19v656q0 11 8 19t19 8h126q11 0 19 -8t8 -19v-324z" />
    <glyph glyph-name="kcommaaccent" unicode="&#x137;" horiz-adv-x="611" 
d="M370 503q17 17 39 17h147q10 0 17 -7t7 -17q0 -5 -2 -9t-9 -11l-178 -198l210 -235q10 -11 10 -19q0 -10 -7 -17t-17 -7h-149q-26 0 -41 17l-159 179v-169q0 -11 -8 -19t-19 -8h-126q-11 0 -19 8t-8 19v656q0 11 8 19t19 8h126q11 0 19 -8t8 -19v-324zM231.5 -61.5
q10.5 11.5 29.5 11.5h115q9 0 15.5 -6.5t6.5 -15.5q0 -4 -1 -7l-55 -139q-12 -32 -43 -32h-81q-9 0 -15.5 6.5t-6.5 15.5v2l22 137q3 16 13.5 27.5z" />
    <glyph glyph-name="kgreenlandic" unicode="&#x138;" horiz-adv-x="607" 
d="M377 503q17 17 39 17h143q10 0 17 -7t7 -17q0 -5 -2 -9t-9 -11l-182 -211l203 -222q10 -11 10 -19q0 -10 -7 -17t-17 -7h-150q-26 0 -41 17l-150 164v-154q0 -11 -8 -19t-19 -8h-126q-11 0 -19 8t-8 19v466q0 11 8 19t19 8h126q11 0 19 -8t8 -19v-144z" />
    <glyph glyph-name="l" unicode="l" horiz-adv-x="296" 
d="M230 8q-8 -8 -19 -8h-126q-11 0 -19 8t-8 19v656q0 11 8 19t19 8h126q11 0 19 -8t8 -19v-656q0 -11 -8 -19z" />
    <glyph glyph-name="lacute" unicode="&#x13a;" horiz-adv-x="296" 
d="M230 8q-8 -8 -19 -8h-126q-11 0 -19 8t-8 19v656q0 11 8 19t19 8h126q11 0 19 -8t8 -19v-656q0 -11 -8 -19zM188 906.5q7 3.5 19 3.5h133q9 0 14 -5.5t5 -14.5q0 -7 -5 -12l-135 -111q-11 -9 -19.5 -13t-22.5 -4h-88q-16 0 -16 16q0 8 5 13l92 112q11 12 18 15.5z" />
    <glyph glyph-name="lcaron" unicode="&#x13e;" horiz-adv-x="411" 
d="M230 8q-8 -8 -19 -8h-126q-11 0 -19 8t-8 19v656q0 11 8 19t19 8h126q11 0 19 -8t8 -19v-656q0 -11 -8 -19zM327.5 699.5q10.5 11.5 29.5 11.5h115q9 0 15.5 -6.5t6.5 -15.5q0 -4 -1 -7l-55 -139q-12 -32 -43 -32h-81q-9 0 -15.5 6.5t-6.5 15.5v2l22 137q3 16 13.5 27.5z
" />
    <glyph glyph-name="lcommaaccent" unicode="&#x13c;" horiz-adv-x="296" 
d="M230 8q-8 -8 -19 -8h-126q-11 0 -19 8t-8 19v656q0 11 8 19t19 8h126q11 0 19 -8t8 -19v-656q0 -11 -8 -19zM68.5 -61.5q10.5 11.5 29.5 11.5h115q9 0 15.5 -6.5t6.5 -15.5q0 -4 -1 -7l-55 -139q-12 -32 -43 -32h-81q-9 0 -15.5 6.5t-6.5 15.5v2l22 137q3 16 13.5 27.5z
" />
    <glyph glyph-name="ldot" unicode="&#x140;" horiz-adv-x="445" 
d="M230 8q-8 -8 -19 -8h-126q-11 0 -19 8t-8 19v656q0 11 8 19t19 8h126q11 0 19 -8t8 -19v-656q0 -11 -8 -19zM445 285q-8 -8 -19 -8h-111q-11 0 -19 8t-8 19v111q0 11 8 19t19 8h111q11 0 19 -8t8 -19v-111q0 -11 -8 -19z" />
    <glyph glyph-name="lslash" unicode="&#x142;" horiz-adv-x="331" 
d="M75 683q0 11 8 19t19 8h126q11 0 19 -8t8 -19v-236l28 11q7 3 11 3q9 0 15 -6t6 -15v-58q0 -13 -5 -20.5t-17 -12.5l-38 -15v-307q0 -11 -8 -19t-19 -8h-126q-11 0 -19 8t-8 19v236l-28 -11q-7 -3 -11 -3q-9 0 -15 6t-6 15v58q0 14 5 21.5t17 11.5l38 15v307z" />
    <glyph glyph-name="m" unicode="m" horiz-adv-x="931" 
d="M870 8q-8 -8 -19 -8h-121q-11 0 -19 8t-8 19v256q0 48 -18 70t-55 22q-36 0 -54 -22t-18 -70v-256q0 -11 -8 -19t-19 -8h-121q-11 0 -19 8t-8 19v256q0 48 -18 70t-55 22q-72 0 -72 -89v-259q0 -11 -8 -19t-19 -8h-126q-11 0 -19 8t-8 19v466q0 11 8 19t19 8h121
q11 0 19 -8t8 -19v-23q47 60 127 60q52 0 93 -19.5t67 -58.5q29 38 70.5 58t89.5 20q91 0 144.5 -57t53.5 -171v-275q0 -11 -8 -19z" />
    <glyph glyph-name="n" unicode="n" horiz-adv-x="644" 
d="M583 8q-8 -8 -19 -8h-126q-11 0 -19 8t-8 19v253q0 44 -21.5 69.5t-65.5 25.5q-43 0 -64.5 -25t-21.5 -70v-253q0 -11 -8 -19t-19 -8h-126q-11 0 -19 8t-8 19v466q0 11 8 19t19 8h121q11 0 19 -8t8 -19v-23q47 60 141 60q101 0 159 -57t58 -171v-275q0 -11 -8 -19z" />
    <glyph glyph-name="nacute" unicode="&#x144;" horiz-adv-x="644" 
d="M583 8q-8 -8 -19 -8h-126q-11 0 -19 8t-8 19v253q0 44 -21.5 69.5t-65.5 25.5q-43 0 -64.5 -25t-21.5 -70v-253q0 -11 -8 -19t-19 -8h-126q-11 0 -19 8t-8 19v466q0 11 8 19t19 8h121q11 0 19 -8t8 -19v-23q47 60 141 60q101 0 159 -57t58 -171v-275q0 -11 -8 -19z
M369 751.5q7 3.5 19 3.5h133q9 0 14 -5.5t5 -14.5q0 -7 -5 -12l-135 -111q-11 -9 -19.5 -13t-22.5 -4h-88q-16 0 -16 16q0 8 5 13l92 112q11 12 18 15.5z" />
    <glyph glyph-name="napostrophe" unicode="&#x149;" horiz-adv-x="644" 
d="M583 8q-8 -8 -19 -8h-126q-11 0 -19 8t-8 19v253q0 44 -21.5 69.5t-65.5 25.5q-43 0 -64.5 -25t-21.5 -70v-253q0 -11 -8 -19t-19 -8h-126q-11 0 -19 8t-8 19v466q0 11 8 19t19 8h121q11 0 19 -8t8 -19v-23q47 60 141 60q101 0 159 -57t58 -171v-275q0 -11 -8 -19z
M114.5 783.5q10.5 11.5 29.5 11.5h115q9 0 15.5 -6.5t6.5 -15.5q0 -4 -1 -7l-55 -139q-12 -32 -43 -32h-81q-9 0 -15.5 6.5t-6.5 15.5v2l22 137q3 16 13.5 27.5z" />
    <glyph glyph-name="ncaron" unicode="&#x148;" horiz-adv-x="644" 
d="M583 8q-8 -8 -19 -8h-126q-11 0 -19 8t-8 19v253q0 44 -21.5 69.5t-65.5 25.5q-43 0 -64.5 -25t-21.5 -70v-253q0 -11 -8 -19t-19 -8h-126q-11 0 -19 8t-8 19v466q0 11 8 19t19 8h121q11 0 19 -8t8 -19v-23q47 60 141 60q101 0 159 -57t58 -171v-275q0 -11 -8 -19z
M261 599q-8 4 -18 15l-102 112q-5 5 -5 13q0 16 16 16h67q9 0 16 -3t15 -8l74 -43l74 43q8 5 15 8t16 3h67q16 0 16 -16q0 -8 -5 -13l-102 -112q-10 -11 -18 -15t-19 -4h-88q-11 0 -19 4z" />
    <glyph glyph-name="ncommaaccent" unicode="&#x146;" horiz-adv-x="644" 
d="M583 8q-8 -8 -19 -8h-126q-11 0 -19 8t-8 19v253q0 44 -21.5 69.5t-65.5 25.5q-43 0 -64.5 -25t-21.5 -70v-253q0 -11 -8 -19t-19 -8h-126q-11 0 -19 8t-8 19v466q0 11 8 19t19 8h121q11 0 19 -8t8 -19v-23q47 60 141 60q101 0 159 -57t58 -171v-275q0 -11 -8 -19z
M245.5 -61.5q10.5 11.5 29.5 11.5h115q9 0 15.5 -6.5t6.5 -15.5q0 -4 -1 -7l-55 -139q-12 -32 -43 -32h-81q-9 0 -15.5 6.5t-6.5 15.5v2l22 137q3 16 13.5 27.5z" />
    <glyph glyph-name="eng" unicode="&#x14b;" horiz-adv-x="644" 
d="M532 -171.5q-59 -53.5 -154 -53.5h-50q-11 0 -19 8t-8 19v96q0 12 8 22t19 10h40q22 0 32.5 13.5t10.5 34.5v302q0 44 -21.5 69.5t-65.5 25.5q-43 0 -64.5 -25t-21.5 -70v-253q0 -11 -8 -19t-19 -8h-126q-11 0 -19 8t-8 19v466q0 11 8 19t19 8h121q11 0 19 -8t8 -19v-23
q47 60 141 60q101 0 159 -57t58 -171v-329q0 -91 -59 -144.5z" />
    <glyph glyph-name="ntilde" unicode="&#xf1;" horiz-adv-x="644" 
d="M583 8q-8 -8 -19 -8h-126q-11 0 -19 8t-8 19v253q0 44 -21.5 69.5t-65.5 25.5q-43 0 -64.5 -25t-21.5 -70v-253q0 -11 -8 -19t-19 -8h-126q-11 0 -19 8t-8 19v466q0 11 8 19t19 8h121q11 0 19 -8t8 -19v-23q47 60 141 60q101 0 159 -57t58 -171v-275q0 -11 -8 -19z
M256 629.5q-6 -5.5 -12 -17.5q-5 -8 -9 -12.5t-10 -4.5h-76q-9 0 -14 5.5t-5 13.5q0 32 12.5 63.5t38 52t61.5 20.5q30 0 49 -7.5t38 -20.5q13 -9 23 -13t22 -4t18 5.5t12 17.5q5 8 9 12.5t10 4.5h76q9 0 14 -5.5t5 -13.5q0 -31 -14.5 -62.5t-40 -52.5t-57.5 -21
q-30 0 -49 7.5t-38 20.5q-13 9 -23 13t-22 4t-18 -5.5z" />
    <glyph glyph-name="o" unicode="o" horiz-adv-x="616" 
d="M543 104.5q-34 -52.5 -95 -83.5t-140 -31t-140 31t-95 83.5t-37 116.5l-1 39l1 38q2 64 36 117t95.5 84t140.5 31t140.5 -31t95.5 -84t36 -117q1 -10 1 -38q0 -29 -1 -39q-3 -64 -37 -116.5zM372.5 166.5q24.5 21.5 27.5 59.5q2 20 2 34t-2 34q-3 38 -27.5 59.5
t-64.5 21.5t-64.5 -21.5t-27.5 -59.5q-1 -10 -1 -34t1 -34q3 -38 27.5 -59.5t64.5 -21.5t64.5 21.5z" />
    <glyph glyph-name="oacute" unicode="&#xf3;" horiz-adv-x="616" 
d="M543 104.5q-34 -52.5 -95 -83.5t-140 -31t-140 31t-95 83.5t-37 116.5l-1 39l1 38q2 64 36 117t95.5 84t140.5 31t140.5 -31t95.5 -84t36 -117q1 -10 1 -38q0 -29 -1 -39q-3 -64 -37 -116.5zM372.5 166.5q24.5 21.5 27.5 59.5q2 20 2 34t-2 34q-3 38 -27.5 59.5
t-64.5 21.5t-64.5 -21.5t-27.5 -59.5q-1 -10 -1 -34t1 -34q3 -38 27.5 -59.5t64.5 -21.5t64.5 21.5zM349 751.5q7 3.5 19 3.5h133q9 0 14 -5.5t5 -14.5q0 -7 -5 -12l-135 -111q-11 -9 -19.5 -13t-22.5 -4h-88q-16 0 -16 16q0 8 5 13l92 112q11 12 18 15.5z" />
    <glyph glyph-name="obreve" unicode="&#x14f;" horiz-adv-x="616" 
d="M543 104.5q-34 -52.5 -95 -83.5t-140 -31t-140 31t-95 83.5t-37 116.5l-1 39l1 38q2 64 36 117t95.5 84t140.5 31t140.5 -31t95.5 -84t36 -117q1 -10 1 -38q0 -29 -1 -39q-3 -64 -37 -116.5zM372.5 166.5q24.5 21.5 27.5 59.5q2 20 2 34t-2 34q-3 38 -27.5 59.5
t-64.5 21.5t-64.5 -21.5t-27.5 -59.5q-1 -10 -1 -34t1 -34q3 -38 27.5 -59.5t64.5 -21.5t64.5 21.5zM149 749.5q5 5.5 14 5.5h84q9 0 14 -5.5t5 -13.5q0 -20 11 -35t31 -15t31 15t11 35q0 8 5 13.5t14 5.5h84q9 0 14 -5.5t5 -13.5q0 -36 -16.5 -69t-53 -55t-94.5 -22
t-94.5 22t-53 55t-16.5 69q0 8 5 13.5z" />
    <glyph glyph-name="ocircumflex" unicode="&#xf4;" horiz-adv-x="616" 
d="M543 104.5q-34 -52.5 -95 -83.5t-140 -31t-140 31t-95 83.5t-37 116.5l-1 39l1 38q2 64 36 117t95.5 84t140.5 31t140.5 -31t95.5 -84t36 -117q1 -10 1 -38q0 -29 -1 -39q-3 -64 -37 -116.5zM372.5 166.5q24.5 21.5 27.5 59.5q2 20 2 34t-2 34q-3 38 -27.5 59.5
t-64.5 21.5t-64.5 -21.5t-27.5 -59.5q-1 -10 -1 -34t1 -34q3 -38 27.5 -59.5t64.5 -21.5t64.5 21.5zM371 751q8 -4 18 -15l102 -112q5 -5 5 -13q0 -16 -16 -16h-67q-9 0 -16 3t-15 8l-74 43l-74 -43q-8 -5 -15 -8t-16 -3h-67q-16 0 -16 16q0 8 5 13l102 112q10 11 18 15
t19 4h88q11 0 19 -4z" />
    <glyph glyph-name="odieresis" unicode="&#xf6;" horiz-adv-x="616" 
d="M543 104.5q-34 -52.5 -95 -83.5t-140 -31t-140 31t-95 83.5t-37 116.5l-1 39l1 38q2 64 36 117t95.5 84t140.5 31t140.5 -31t95.5 -84t36 -117q1 -10 1 -38q0 -29 -1 -39q-3 -64 -37 -116.5zM372.5 166.5q24.5 21.5 27.5 59.5q2 20 2 34t-2 34q-3 38 -27.5 59.5
t-64.5 21.5t-64.5 -21.5t-27.5 -59.5q-1 -10 -1 -34t1 -34q3 -38 27.5 -59.5t64.5 -21.5t64.5 21.5zM265 603q-8 -8 -19 -8h-101q-11 0 -19 8t-8 19v101q0 11 8 19t19 8h101q11 0 19 -8t8 -19v-101q0 -11 -8 -19zM490 603q-8 -8 -19 -8h-101q-11 0 -19 8t-8 19v101
q0 11 8 19t19 8h101q11 0 19 -8t8 -19v-101q0 -11 -8 -19z" />
    <glyph glyph-name="ograve" unicode="&#xf2;" horiz-adv-x="616" 
d="M543 104.5q-34 -52.5 -95 -83.5t-140 -31t-140 31t-95 83.5t-37 116.5l-1 39l1 38q2 64 36 117t95.5 84t140.5 31t140.5 -31t95.5 -84t36 -117q1 -10 1 -38q0 -29 -1 -39q-3 -64 -37 -116.5zM372.5 166.5q24.5 21.5 27.5 59.5q2 20 2 34t-2 34q-3 38 -27.5 59.5
t-64.5 21.5t-64.5 -21.5t-27.5 -59.5q-1 -10 -1 -34t1 -34q3 -38 27.5 -59.5t64.5 -21.5t64.5 21.5zM388 611q0 -16 -16 -16h-88q-14 0 -22.5 4t-19.5 13l-135 111q-5 5 -5 12q0 9 5 14.5t14 5.5h133q12 0 19 -3.5t18 -15.5l92 -112q5 -5 5 -13z" />
    <glyph glyph-name="ohungarumlaut" unicode="&#x151;" horiz-adv-x="616" 
d="M543 104.5q-34 -52.5 -95 -83.5t-140 -31t-140 31t-95 83.5t-37 116.5l-1 39l1 38q2 64 36 117t95.5 84t140.5 31t140.5 -31t95.5 -84t36 -117q1 -10 1 -38q0 -29 -1 -39q-3 -64 -37 -116.5zM372.5 166.5q24.5 21.5 27.5 59.5q2 20 2 34t-2 34q-3 38 -27.5 59.5
t-64.5 21.5t-64.5 -21.5t-27.5 -59.5q-1 -10 -1 -34t1 -34q3 -38 27.5 -59.5t64.5 -21.5t64.5 21.5zM203.5 750.5q8.5 4.5 23.5 4.5h112q9 0 14.5 -5t5.5 -14q0 -7 -6 -13l-105 -114q-12 -14 -34 -14h-63q-16 0 -16 16q0 5 5 15l50 110q5 10 13.5 14.5zM423.5 750.5
q8.5 4.5 23.5 4.5h112q9 0 14.5 -5t5.5 -14q0 -7 -6 -13l-105 -114q-12 -14 -34 -14h-63q-16 0 -16 16q0 5 5 15l50 110q5 10 13.5 14.5z" />
    <glyph glyph-name="omacron" unicode="&#x14d;" horiz-adv-x="616" 
d="M543 104.5q-34 -52.5 -95 -83.5t-140 -31t-140 31t-95 83.5t-37 116.5l-1 39l1 38q2 64 36 117t95.5 84t140.5 31t140.5 -31t95.5 -84t36 -117q1 -10 1 -38q0 -29 -1 -39q-3 -64 -37 -116.5zM372.5 166.5q24.5 21.5 27.5 59.5q2 20 2 34t-2 34q-3 38 -27.5 59.5
t-64.5 21.5t-64.5 -21.5t-27.5 -59.5q-1 -10 -1 -34t1 -34q3 -38 27.5 -59.5t64.5 -21.5t64.5 21.5zM145 603q-8 8 -8 19v86q0 11 8 19t19 8h289q11 0 19 -8t8 -19v-86q0 -11 -8 -19t-19 -8h-289q-11 0 -19 8z" />
    <glyph glyph-name="oslash" unicode="&#xf8;" horiz-adv-x="654" 
d="M55 221l-1 39l1 38q2 64 36 117t95.5 84t140.5 31q81 0 143.5 -32.5t95.5 -88.5l47 18q8 3 11 3q9 0 15 -6t6 -15v-58q0 -13 -5 -20.5t-17 -12.5l-25 -10q1 -3 1 -10q1 -10 1 -38q0 -29 -1 -39q-3 -64 -37 -116.5t-95 -83.5t-140 -31q-83 0 -145 33t-95 89l-46 -18
q-7 -3 -11 -3q-9 0 -15 6t-6 15v58q0 14 5 21.5t17 11.5l24 9v9zM327 375q-41 0 -66.5 -24t-26.5 -70l165 64q-25 30 -72 30zM327 145q42 0 67.5 24.5t25.5 70.5l-167 -64q25 -31 74 -31z" />
    <glyph glyph-name="oslashacute" unicode="&#x1ff;" horiz-adv-x="654" 
d="M364 751.5q7 3.5 19 3.5h133q9 0 14 -5.5t5 -14.5q0 -7 -5 -12l-135 -111q-11 -9 -19.5 -13t-22.5 -4h-88q-16 0 -16 16q0 8 5 13l92 112q11 12 18 15.5zM55 221l-1 39l1 38q2 64 36 117t95.5 84t140.5 31q81 0 143.5 -32.5t95.5 -88.5l47 18q8 3 11 3q9 0 15 -6t6 -15
v-58q0 -13 -5 -20.5t-17 -12.5l-25 -10q1 -3 1 -10q1 -10 1 -38q0 -29 -1 -39q-3 -64 -37 -116.5t-95 -83.5t-140 -31q-83 0 -145 33t-95 89l-46 -18q-7 -3 -11 -3q-9 0 -15 6t-6 15v58q0 14 5 21.5t17 11.5l24 9v9zM327 375q-41 0 -66.5 -24t-26.5 -70l165 64
q-25 30 -72 30zM327 145q42 0 67.5 24.5t25.5 70.5l-167 -64q25 -31 74 -31z" />
    <glyph glyph-name="otilde" unicode="&#xf5;" horiz-adv-x="616" 
d="M543 104.5q-34 -52.5 -95 -83.5t-140 -31t-140 31t-95 83.5t-37 116.5l-1 39l1 38q2 64 36 117t95.5 84t140.5 31t140.5 -31t95.5 -84t36 -117q1 -10 1 -38q0 -29 -1 -39q-3 -64 -37 -116.5zM372.5 166.5q24.5 21.5 27.5 59.5q2 20 2 34t-2 34q-3 38 -27.5 59.5
t-64.5 21.5t-64.5 -21.5t-27.5 -59.5q-1 -10 -1 -34t1 -34q3 -38 27.5 -59.5t64.5 -21.5t64.5 21.5zM240 629.5q-6 -5.5 -12 -17.5q-5 -8 -9 -12.5t-10 -4.5h-76q-9 0 -14 5.5t-5 13.5q0 32 12.5 63.5t38 52t61.5 20.5q30 0 49 -7.5t38 -20.5q13 -9 23 -13t22 -4t18 5.5
t12 17.5q5 8 9 12.5t10 4.5h76q9 0 14 -5.5t5 -13.5q0 -31 -14.5 -62.5t-40 -52.5t-57.5 -21q-30 0 -49 7.5t-38 20.5q-13 9 -23 13t-22 4t-18 -5.5z" />
    <glyph glyph-name="oe" unicode="&#x153;" horiz-adv-x="975" 
d="M609 143q27 -18 63 -18q28 0 46 6t31 17q11 9 16 11.5t17 2.5h130q10 0 16 -6t6 -16q0 -20 -30 -56.5t-89 -65t-143 -28.5q-113 0 -183 56q-74 -56 -181 -56q-79 0 -140 31t-95 83.5t-37 116.5l-1 39l1 38q2 64 36 117t95.5 84t140.5 31q54 0 101 -15t82 -43
q71 58 181 58q93 0 153.5 -39.5t88.5 -102t28 -130.5v-28q0 -11 -8 -19t-19 -8h-333q0 -42 27 -60zM762 314q-4 34 -27.5 57.5t-62.5 23.5t-62.5 -23.5t-27.5 -57.5h180zM372.5 166.5q24.5 21.5 27.5 59.5q2 20 2 34t-2 34q-3 38 -27.5 59.5t-64.5 21.5t-64.5 -21.5
t-27.5 -59.5q-1 -10 -1 -34t1 -34q3 -38 27.5 -59.5t64.5 -21.5t64.5 21.5z" />
    <glyph glyph-name="p" unicode="p" horiz-adv-x="634" 
d="M238 -163q0 -11 -8 -19t-19 -8h-126q-11 0 -19 8t-8 19v656q0 11 8 19t19 8h121q11 0 19 -8t8 -19v-23q16 19 30.5 31t41 20.5t67.5 8.5q95 0 157.5 -58t66.5 -171q1 -10 1 -40q0 -31 -1 -41q-4 -113 -66 -171.5t-158 -58.5q-52 0 -84 18t-50 42v-213zM392.5 351
q-21.5 24 -65.5 24q-41 0 -62.5 -23t-26.5 -57q-2 -20 -2 -35t2 -35q4 -33 26 -56.5t63 -23.5q44 0 65.5 24t24.5 63q2 20 2 28t-2 28q-3 39 -24.5 63z" />
    <glyph glyph-name="thorn" unicode="&#xfe;" horiz-adv-x="635" 
d="M239 -163q0 -11 -8 -19t-19 -8h-126q-11 0 -19 8t-8 19v846q0 11 8 19t19 8h126q11 0 19 -8t8 -19v-213q21 27 51 43.5t83 16.5q95 0 157.5 -58t66.5 -171q1 -10 1 -40q0 -31 -1 -41q-4 -113 -66 -171.5t-158 -58.5q-52 0 -84 18t-50 42v-213zM393.5 351
q-21.5 24 -65.5 24q-41 0 -62.5 -23t-26.5 -57q-2 -20 -2 -35t2 -35q4 -33 26 -56.5t63 -23.5q44 0 65.5 24t24.5 63q2 20 2 28t-2 28q-3 39 -24.5 63z" />
    <glyph glyph-name="q" unicode="q" horiz-adv-x="634" 
d="M37 261l1 40q4 113 66.5 171t157.5 58q41 0 67.5 -8.5t41 -20.5t30.5 -31v23q0 11 8 19t19 8h121q11 0 19 -8t8 -19v-656q0 -11 -8 -19t-19 -8h-126q-11 0 -19 8t-8 19v213q-18 -24 -50 -42t-84 -18q-96 0 -158 58.5t-66 171.5zM370 168.5q22 23.5 26 56.5q2 10 2 35
t-2 35q-5 34 -26.5 57t-62.5 23q-44 0 -65.5 -24t-24.5 -63q-1 -10 -1 -28t1 -28q3 -39 24.5 -63t65.5 -24q41 0 63 23.5z" />
    <glyph glyph-name="r" unicode="r" horiz-adv-x="459" 
d="M440 512q8 -8 8 -19v-101q0 -11 -8 -19t-19 -8h-91q-45 0 -68.5 -23.5t-23.5 -68.5v-246q0 -11 -8 -19t-19 -8h-126q-11 0 -19 8t-8 19v466q0 11 8 19t19 8h116q11 0 19 -8t8 -19v-23q52 50 133 50h60q11 0 19 -8z" />
    <glyph glyph-name="racute" unicode="&#x155;" horiz-adv-x="459" 
d="M440 512q8 -8 8 -19v-101q0 -11 -8 -19t-19 -8h-91q-45 0 -68.5 -23.5t-23.5 -68.5v-246q0 -11 -8 -19t-19 -8h-126q-11 0 -19 8t-8 19v466q0 11 8 19t19 8h116q11 0 19 -8t8 -19v-23q52 50 133 50h60q11 0 19 -8zM297 751.5q7 3.5 19 3.5h133q9 0 14 -5.5t5 -14.5
q0 -7 -5 -12l-135 -111q-11 -9 -19.5 -13t-22.5 -4h-88q-16 0 -16 16q0 8 5 13l92 112q11 12 18 15.5z" />
    <glyph glyph-name="rcaron" unicode="&#x159;" horiz-adv-x="459" 
d="M440 512q8 -8 8 -19v-101q0 -11 -8 -19t-19 -8h-91q-45 0 -68.5 -23.5t-23.5 -68.5v-246q0 -11 -8 -19t-19 -8h-126q-11 0 -19 8t-8 19v466q0 11 8 19t19 8h116q11 0 19 -8t8 -19v-23q52 50 133 50h60q11 0 19 -8zM190 599q-8 4 -18 15l-102 112q-5 5 -5 13q0 16 16 16
h67q9 0 16 -3t15 -8l74 -43l74 43q8 5 15 8t16 3h67q16 0 16 -16q0 -8 -5 -13l-102 -112q-10 -11 -18 -15t-19 -4h-88q-11 0 -19 4z" />
    <glyph glyph-name="rcommaaccent" unicode="&#x157;" horiz-adv-x="459" 
d="M440 512q8 -8 8 -19v-101q0 -11 -8 -19t-19 -8h-91q-45 0 -68.5 -23.5t-23.5 -68.5v-246q0 -11 -8 -19t-19 -8h-126q-11 0 -19 8t-8 19v466q0 11 8 19t19 8h116q11 0 19 -8t8 -19v-23q52 50 133 50h60q11 0 19 -8zM66.5 -61.5q10.5 11.5 29.5 11.5h115q9 0 15.5 -6.5
t6.5 -15.5q0 -4 -1 -7l-55 -139q-12 -32 -43 -32h-81q-9 0 -15.5 6.5t-6.5 15.5v2l22 137q3 16 13.5 27.5z" />
    <glyph glyph-name="s" unicode="s" horiz-adv-x="562" 
d="M81 259.5q-41 42.5 -41 109.5q0 45 29.5 81.5t83 58t121.5 21.5q67 0 121.5 -20.5t86.5 -52.5t35 -67q1 -11 -7.5 -19t-19.5 -8h-119q-11 0 -26 11q-13 10 -28 15.5t-43 5.5q-24 0 -39 -7t-15 -21q0 -12 5.5 -18t20 -9t50.5 -8l62 -10q87 -14 130.5 -59.5t43.5 -108.5
q0 -45 -30.5 -82.5t-88 -59.5t-135.5 -22q-75 0 -130.5 21.5t-85 54.5t-32.5 67q-1 11 7.5 19t19.5 8h124q7 0 11.5 -2.5t10.5 -8.5q12 -11 27 -17.5t48 -6.5q31 0 52.5 8.5t21.5 22.5q0 16 -15.5 21.5t-66.5 13.5l-72 12q-76 14 -117 56.5z" />
    <glyph glyph-name="sacute" unicode="&#x15b;" horiz-adv-x="562" 
d="M81 259.5q-41 42.5 -41 109.5q0 45 29.5 81.5t83 58t121.5 21.5q67 0 121.5 -20.5t86.5 -52.5t35 -67q1 -11 -7.5 -19t-19.5 -8h-119q-11 0 -26 11q-13 10 -28 15.5t-43 5.5q-24 0 -39 -7t-15 -21q0 -12 5.5 -18t20 -9t50.5 -8l62 -10q87 -14 130.5 -59.5t43.5 -108.5
q0 -45 -30.5 -82.5t-88 -59.5t-135.5 -22q-75 0 -130.5 21.5t-85 54.5t-32.5 67q-1 11 7.5 19t19.5 8h124q7 0 11.5 -2.5t10.5 -8.5q12 -11 27 -17.5t48 -6.5q31 0 52.5 8.5t21.5 22.5q0 16 -15.5 21.5t-66.5 13.5l-72 12q-76 14 -117 56.5zM327 751.5q7 3.5 19 3.5h133
q9 0 14 -5.5t5 -14.5q0 -7 -5 -12l-135 -111q-11 -9 -19.5 -13t-22.5 -4h-88q-16 0 -16 16q0 8 5 13l92 112q11 12 18 15.5z" />
    <glyph glyph-name="scaron" unicode="&#x161;" horiz-adv-x="562" 
d="M81 259.5q-41 42.5 -41 109.5q0 45 29.5 81.5t83 58t121.5 21.5q67 0 121.5 -20.5t86.5 -52.5t35 -67q1 -11 -7.5 -19t-19.5 -8h-119q-11 0 -26 11q-13 10 -28 15.5t-43 5.5q-24 0 -39 -7t-15 -21q0 -12 5.5 -18t20 -9t50.5 -8l62 -10q87 -14 130.5 -59.5t43.5 -108.5
q0 -45 -30.5 -82.5t-88 -59.5t-135.5 -22q-75 0 -130.5 21.5t-85 54.5t-32.5 67q-1 11 7.5 19t19.5 8h124q7 0 11.5 -2.5t10.5 -8.5q12 -11 27 -17.5t48 -6.5q31 0 52.5 8.5t21.5 22.5q0 16 -15.5 21.5t-66.5 13.5l-72 12q-76 14 -117 56.5zM215 599q-8 4 -18 15l-102 112
q-5 5 -5 13q0 16 16 16h67q9 0 16 -3t15 -8l74 -43l74 43q8 5 15 8t16 3h67q16 0 16 -16q0 -8 -5 -13l-102 -112q-10 -11 -18 -15t-19 -4h-88q-11 0 -19 4z" />
    <glyph glyph-name="scedilla" unicode="&#x15f;" horiz-adv-x="562" 
d="M81 259.5q-41 42.5 -41 109.5q0 45 29.5 81.5t83 58t121.5 21.5q67 0 121.5 -20.5t86.5 -52.5t35 -67q1 -11 -7.5 -19t-19.5 -8h-119q-11 0 -26 11q-13 10 -28 15.5t-43 5.5q-24 0 -39 -7t-15 -21q0 -12 5.5 -18t20 -9t50.5 -8l62 -10q87 -14 130.5 -59.5t43.5 -108.5
q0 -45 -30 -82.5t-87 -59.5t-133 -22l-21 -44q16 10 37 10q37 0 56.5 -25t19.5 -63q0 -37 -27.5 -62.5t-71.5 -25.5q-27 0 -54.5 13.5t-27.5 27.5q0 6 5 10l18 16q8 8 15 8q4 0 16.5 -7t27.5 -7q33 0 33 27t-33 27q-6 0 -19.5 -3.5t-19.5 -3.5q-9 0 -15 6l-18 21l-5.5 7.5
t-2.5 7.5q0 6 6 18l22 46q-59 7 -101.5 29t-65.5 51.5t-26 58.5q-1 11 7.5 19t19.5 8h124q7 0 11.5 -2.5t10.5 -8.5q12 -11 27 -17.5t48 -6.5q31 0 52.5 8.5t21.5 22.5q0 16 -15.5 21.5t-66.5 13.5l-72 12q-76 14 -117 56.5z" />
    <glyph glyph-name="scircumflex" unicode="&#x15d;" horiz-adv-x="562" 
d="M81 259.5q-41 42.5 -41 109.5q0 45 29.5 81.5t83 58t121.5 21.5q67 0 121.5 -20.5t86.5 -52.5t35 -67q1 -11 -7.5 -19t-19.5 -8h-119q-11 0 -26 11q-13 10 -28 15.5t-43 5.5q-24 0 -39 -7t-15 -21q0 -12 5.5 -18t20 -9t50.5 -8l62 -10q87 -14 130.5 -59.5t43.5 -108.5
q0 -45 -30.5 -82.5t-88 -59.5t-135.5 -22q-75 0 -130.5 21.5t-85 54.5t-32.5 67q-1 11 7.5 19t19.5 8h124q7 0 11.5 -2.5t10.5 -8.5q12 -11 27 -17.5t48 -6.5q31 0 52.5 8.5t21.5 22.5q0 16 -15.5 21.5t-66.5 13.5l-72 12q-76 14 -117 56.5zM341 751q8 -4 18 -15l102 -112
q5 -5 5 -13q0 -16 -16 -16h-67q-9 0 -16 3t-15 8l-74 43l-74 -43q-8 -5 -15 -8t-16 -3h-67q-16 0 -16 16q0 8 5 13l102 112q10 11 18 15t19 4h88q11 0 19 -4z" />
    <glyph glyph-name="scommaaccent" unicode="&#x219;" horiz-adv-x="562" 
d="M81 259.5q-41 42.5 -41 109.5q0 45 29.5 81.5t83 58t121.5 21.5q67 0 121.5 -20.5t86.5 -52.5t35 -67q1 -11 -7.5 -19t-19.5 -8h-119q-11 0 -26 11q-13 10 -28 15.5t-43 5.5q-24 0 -39 -7t-15 -21q0 -12 5.5 -18t20 -9t50.5 -8l62 -10q87 -14 130.5 -59.5t43.5 -108.5
q0 -45 -30.5 -82.5t-88 -59.5t-135.5 -22q-75 0 -130.5 21.5t-85 54.5t-32.5 67q-1 11 7.5 19t19.5 8h124q7 0 11.5 -2.5t10.5 -8.5q12 -11 27 -17.5t48 -6.5q31 0 52.5 8.5t21.5 22.5q0 16 -15.5 21.5t-66.5 13.5l-72 12q-76 14 -117 56.5zM196.5 -61.5
q10.5 11.5 29.5 11.5h115q9 0 15.5 -6.5t6.5 -15.5q0 -4 -1 -7l-55 -139q-12 -32 -43 -32h-81q-9 0 -15.5 6.5t-6.5 15.5v2l22 137q3 16 13.5 27.5z" />
    <glyph glyph-name="germandbls" unicode="&#xdf;" horiz-adv-x="660" 
d="M301 147q8 8 19 8h41q40 0 64.5 16t24.5 48t-24.5 48t-64.5 16h-46q-10 0 -16 6t-6 16v111q0 10 6 16t16 6h31q37 0 60.5 14.5t23.5 43.5t-26 44t-73 15q-49 0 -73.5 -23t-24.5 -81v-424q0 -11 -8 -19t-19 -8h-121q-11 0 -19 8t-8 19v424q0 122 70 190.5t203 68.5
q87 0 148.5 -29t92.5 -77.5t31 -107.5q0 -50 -16 -77.5t-43 -48.5q31 -21 56 -59t25 -92q0 -103 -70.5 -161t-188.5 -58h-46q-11 0 -19 8t-8 19v101q0 11 8 19z" />
    <glyph glyph-name="longs" unicode="&#x17f;" horiz-adv-x="355" 
d="M289 8q-8 -8 -19 -8h-126q-11 0 -19 8t-8 19v338h-69q-11 0 -19 8t-8 19v101q0 11 8 19t19 8h69v27q0 90 61 141.5t157 51.5h95q11 0 19 -8t8 -19v-101q0 -11 -8 -19t-19 -8h-90q-43 0 -43 -43v-515q0 -11 -8 -19z" />
    <glyph glyph-name="t" unicode="t" horiz-adv-x="474" 
d="M340 155h80q11 0 19 -8t8 -19v-101q0 -11 -8 -19t-19 -8h-95q-95 0 -151.5 53t-56.5 144v168h-74q-11 0 -19 8t-8 19v101q0 11 8 19t19 8h74v163q0 11 8 19t19 8h126q11 0 19 -8t8 -19v-163h113q11 0 19 -8t8 -19v-101q0 -11 -8 -19t-19 -8h-113v-162q0 -48 43 -48z" />
    <glyph glyph-name="tbar" unicode="&#x167;" horiz-adv-x="475" 
d="M438 292q0 -11 -8 -19t-19 -8h-113v-62q0 -48 43 -48h80q11 0 19 -8t8 -19v-101q0 -11 -8 -19t-19 -8h-95q-95 0 -151.5 53t-56.5 144v68h-74q-11 0 -19 8t-8 19v51q0 11 8 19t19 8h74v45h-74q-11 0 -19 8t-8 19v51q0 11 8 19t19 8h74v163q0 11 8 19t19 8h126q11 0 19 -8
t8 -19v-163h113q11 0 19 -8t8 -19v-51q0 -11 -8 -19t-19 -8h-113v-45h113q11 0 19 -8t8 -19v-51z" />
    <glyph glyph-name="tcaron" unicode="&#x165;" horiz-adv-x="552" 
d="M340 155h80q11 0 19 -8t8 -19v-101q0 -11 -8 -19t-19 -8h-95q-95 0 -151.5 53t-56.5 144v168h-74q-11 0 -19 8t-8 19v101q0 11 8 19t19 8h74v163q0 11 8 19t19 8h126q11 0 19 -8t8 -19v-163h113q11 0 19 -8t8 -19v-101q0 -11 -8 -19t-19 -8h-113v-162q0 -48 43 -48z
M496.5 698.5q10.5 11.5 29.5 11.5h115q9 0 15.5 -6.5t6.5 -15.5q0 -4 -1 -7l-55 -139q-12 -32 -43 -32h-81q-9 0 -15.5 6.5t-6.5 15.5v2l22 137q3 16 13.5 27.5z" />
    <glyph glyph-name="uni021B" unicode="&#x21b;" horiz-adv-x="474" 
d="M340 155h80q11 0 19 -8t8 -19v-101q0 -11 -8 -19t-19 -8h-95q-95 0 -151.5 53t-56.5 144v168h-74q-11 0 -19 8t-8 19v101q0 11 8 19t19 8h74v163q0 11 8 19t19 8h126q11 0 19 -8t8 -19v-163h113q11 0 19 -8t8 -19v-101q0 -11 -8 -19t-19 -8h-113v-162q0 -48 43 -48z
M147.5 -61.5q10.5 11.5 29.5 11.5h115q9 0 15.5 -6.5t6.5 -15.5q0 -4 -1 -7l-55 -139q-12 -32 -43 -32h-81q-9 0 -15.5 6.5t-6.5 15.5v2l22 137q3 16 13.5 27.5z" />
    <glyph glyph-name="u" unicode="u" horiz-adv-x="634" 
d="M61 512q8 8 19 8h126q11 0 19 -8t8 -19v-253q0 -45 20 -70t62 -25q81 0 81 95v253q0 11 8 19t19 8h126q11 0 19 -8t8 -19v-466q0 -11 -8 -19t-19 -8h-116q-11 0 -19 8t-8 19v23q-21 -26 -53.5 -43t-87.5 -17q-100 0 -156 57t-56 171v275q0 11 8 19z" />
    <glyph glyph-name="uacute" unicode="&#xfa;" horiz-adv-x="634" 
d="M61 512q8 8 19 8h126q11 0 19 -8t8 -19v-253q0 -45 20 -70t62 -25q81 0 81 95v253q0 11 8 19t19 8h126q11 0 19 -8t8 -19v-466q0 -11 -8 -19t-19 -8h-116q-11 0 -19 8t-8 19v23q-21 -26 -53.5 -43t-87.5 -17q-100 0 -156 57t-56 171v275q0 11 8 19zM360 751.5
q7 3.5 19 3.5h133q9 0 14 -5.5t5 -14.5q0 -7 -5 -12l-135 -111q-11 -9 -19.5 -13t-22.5 -4h-88q-16 0 -16 16q0 8 5 13l92 112q11 12 18 15.5z" />
    <glyph glyph-name="ubreve" unicode="&#x16d;" horiz-adv-x="634" 
d="M61 512q8 8 19 8h126q11 0 19 -8t8 -19v-253q0 -45 20 -70t62 -25q81 0 81 95v253q0 11 8 19t19 8h126q11 0 19 -8t8 -19v-466q0 -11 -8 -19t-19 -8h-116q-11 0 -19 8t-8 19v23q-21 -26 -53.5 -43t-87.5 -17q-100 0 -156 57t-56 171v275q0 11 8 19zM155 749.5
q5 5.5 14 5.5h84q9 0 14 -5.5t5 -13.5q0 -20 11 -35t31 -15t31 15t11 35q0 8 5 13.5t14 5.5h84q9 0 14 -5.5t5 -13.5q0 -36 -16.5 -69t-53 -55t-94.5 -22t-94.5 22t-53 55t-16.5 69q0 8 5 13.5z" />
    <glyph glyph-name="ucircumflex" unicode="&#xfb;" horiz-adv-x="634" 
d="M61 512q8 8 19 8h126q11 0 19 -8t8 -19v-253q0 -45 20 -70t62 -25q81 0 81 95v253q0 11 8 19t19 8h126q11 0 19 -8t8 -19v-466q0 -11 -8 -19t-19 -8h-116q-11 0 -19 8t-8 19v23q-21 -26 -53.5 -43t-87.5 -17q-100 0 -156 57t-56 171v275q0 11 8 19zM377 751q8 -4 18 -15
l102 -112q5 -5 5 -13q0 -16 -16 -16h-67q-9 0 -16 3t-15 8l-74 43l-74 -43q-8 -5 -15 -8t-16 -3h-67q-16 0 -16 16q0 8 5 13l102 112q10 11 18 15t19 4h88q11 0 19 -4z" />
    <glyph glyph-name="udieresis" unicode="&#xfc;" horiz-adv-x="634" 
d="M61 512q8 8 19 8h126q11 0 19 -8t8 -19v-253q0 -45 20 -70t62 -25q81 0 81 95v253q0 11 8 19t19 8h126q11 0 19 -8t8 -19v-466q0 -11 -8 -19t-19 -8h-116q-11 0 -19 8t-8 19v23q-21 -26 -53.5 -43t-87.5 -17q-100 0 -156 57t-56 171v275q0 11 8 19zM271 603q-8 -8 -19 -8
h-101q-11 0 -19 8t-8 19v101q0 11 8 19t19 8h101q11 0 19 -8t8 -19v-101q0 -11 -8 -19zM496 603q-8 -8 -19 -8h-101q-11 0 -19 8t-8 19v101q0 11 8 19t19 8h101q11 0 19 -8t8 -19v-101q0 -11 -8 -19z" />
    <glyph glyph-name="ugrave" unicode="&#xf9;" horiz-adv-x="634" 
d="M61 512q8 8 19 8h126q11 0 19 -8t8 -19v-253q0 -45 20 -70t62 -25q81 0 81 95v253q0 11 8 19t19 8h126q11 0 19 -8t8 -19v-466q0 -11 -8 -19t-19 -8h-116q-11 0 -19 8t-8 19v23q-21 -26 -53.5 -43t-87.5 -17q-100 0 -156 57t-56 171v275q0 11 8 19zM390 611
q0 -16 -16 -16h-88q-14 0 -22.5 4t-19.5 13l-135 111q-5 5 -5 12q0 9 5 14.5t14 5.5h133q12 0 19 -3.5t18 -15.5l92 -112q5 -5 5 -13z" />
    <glyph glyph-name="uhungarumlaut" unicode="&#x171;" horiz-adv-x="634" 
d="M61 512q8 8 19 8h126q11 0 19 -8t8 -19v-253q0 -45 20 -70t62 -25q81 0 81 95v253q0 11 8 19t19 8h126q11 0 19 -8t8 -19v-466q0 -11 -8 -19t-19 -8h-116q-11 0 -19 8t-8 19v23q-21 -26 -53.5 -43t-87.5 -17q-100 0 -156 57t-56 171v275q0 11 8 19zM208.5 750.5
q8.5 4.5 23.5 4.5h112q9 0 14.5 -5t5.5 -14q0 -7 -6 -13l-105 -114q-12 -14 -34 -14h-63q-16 0 -16 16q0 5 5 15l50 110q5 10 13.5 14.5zM428.5 750.5q8.5 4.5 23.5 4.5h112q9 0 14.5 -5t5.5 -14q0 -7 -6 -13l-105 -114q-12 -14 -34 -14h-63q-16 0 -16 16q0 5 5 15l50 110
q5 10 13.5 14.5z" />
    <glyph glyph-name="umacron" unicode="&#x16b;" horiz-adv-x="634" 
d="M61 512q8 8 19 8h126q11 0 19 -8t8 -19v-253q0 -45 20 -70t62 -25q81 0 81 95v253q0 11 8 19t19 8h126q11 0 19 -8t8 -19v-466q0 -11 -8 -19t-19 -8h-116q-11 0 -19 8t-8 19v23q-21 -26 -53.5 -43t-87.5 -17q-100 0 -156 57t-56 171v275q0 11 8 19zM151 603q-8 8 -8 19
v86q0 11 8 19t19 8h289q11 0 19 -8t8 -19v-86q0 -11 -8 -19t-19 -8h-289q-11 0 -19 8z" />
    <glyph glyph-name="uogonek" unicode="&#x173;" horiz-adv-x="634" 
d="M61 512q8 8 19 8h126q11 0 19 -8t8 -19v-253q0 -45 20 -70t62 -25q81 0 81 95v253q0 11 8 19t19 8h126q11 0 19 -8t8 -19v-466q0 -11 -8 -19t-19 -8h-15q-23 -1 -36 -17t-13 -39q0 -24 14.5 -40t39.5 -16h15q10 0 16 -6t6 -16v-64q0 -10 -6 -16t-16 -6h-19
q-74 0 -118 45.5t-44 118.5q0 48 33 86v20q-21 -26 -53.5 -43t-87.5 -17q-100 0 -156 57t-56 171v275q0 11 8 19z" />
    <glyph glyph-name="uring" unicode="&#x16f;" horiz-adv-x="634" 
d="M61 512q8 8 19 8h126q11 0 19 -8t8 -19v-253q0 -45 20 -70t62 -25q81 0 81 95v253q0 11 8 19t19 8h126q11 0 19 -8t8 -19v-466q0 -11 -8 -19t-19 -8h-116q-11 0 -19 8t-8 19v23q-21 -26 -53.5 -43t-87.5 -17q-100 0 -156 57t-56 171v275q0 11 8 19zM381.5 744.5
q27.5 -25.5 27.5 -64.5t-27.5 -64.5t-67.5 -25.5t-67.5 25.5t-27.5 64.5t27.5 64.5t67.5 25.5t67.5 -25.5zM335.5 658.5q8.5 8.5 8.5 21.5t-8.5 21.5t-21.5 8.5t-21.5 -8.5t-8.5 -21.5t8.5 -21.5t21.5 -8.5t21.5 8.5z" />
    <glyph glyph-name="utilde" unicode="&#x169;" horiz-adv-x="634" 
d="M61 512q8 8 19 8h126q11 0 19 -8t8 -19v-253q0 -45 20 -70t62 -25q81 0 81 95v253q0 11 8 19t19 8h126q11 0 19 -8t8 -19v-466q0 -11 -8 -19t-19 -8h-116q-11 0 -19 8t-8 19v23q-21 -26 -53.5 -43t-87.5 -17q-100 0 -156 57t-56 171v275q0 11 8 19zM246 629.5
q-6 -5.5 -12 -17.5q-5 -8 -9 -12.5t-10 -4.5h-76q-9 0 -14 5.5t-5 13.5q0 32 12.5 63.5t38 52t61.5 20.5q30 0 49 -7.5t38 -20.5q13 -9 23 -13t22 -4t18 5.5t12 17.5q5 8 9 12.5t10 4.5h76q9 0 14 -5.5t5 -13.5q0 -31 -14.5 -62.5t-40 -52.5t-57.5 -21q-30 0 -49 7.5
t-38 20.5q-13 9 -23 13t-22 4t-18 -5.5z" />
    <glyph glyph-name="v" unicode="v" horiz-adv-x="624" 
d="M18 489q-1 3 -1 7q0 10 7 17t17 7h128q22 0 33 -24l110 -261l110 261q11 24 33 24h128q10 0 17 -7t7 -17q0 -4 -1 -7l-202 -464q-6 -12 -13 -18.5t-20 -6.5h-118q-13 0 -20 6.5t-13 18.5z" />
    <glyph glyph-name="w" unicode="w" horiz-adv-x="866" 
d="M514 496l74 -227l74 227q9 24 34 24h124q10 0 17 -7t7 -17l-1 -8l-159 -463q-8 -25 -33 -25h-114q-23 0 -33 25l-71 210l-71 -210q-10 -25 -33 -25h-114q-25 0 -33 25l-159 463l-1 8q0 10 7 17t17 7h124q25 0 34 -24l74 -227l74 227q9 24 34 24h94q25 0 34 -24z" />
    <glyph glyph-name="wacute" unicode="&#x1e83;" horiz-adv-x="866" 
d="M514 496l74 -227l74 227q9 24 34 24h124q10 0 17 -7t7 -17l-1 -8l-159 -463q-8 -25 -33 -25h-114q-23 0 -33 25l-71 210l-71 -210q-10 -25 -33 -25h-114q-25 0 -33 25l-159 463l-1 8q0 10 7 17t17 7h124q25 0 34 -24l74 -227l74 227q9 24 34 24h94q25 0 34 -24z
M478 751.5q7 3.5 19 3.5h133q9 0 14 -5.5t5 -14.5q0 -7 -5 -12l-135 -111q-11 -9 -19.5 -13t-22.5 -4h-88q-16 0 -16 16q0 8 5 13l92 112q11 12 18 15.5z" />
    <glyph glyph-name="wcircumflex" unicode="&#x175;" horiz-adv-x="866" 
d="M514 496l74 -227l74 227q9 24 34 24h124q10 0 17 -7t7 -17l-1 -8l-159 -463q-8 -25 -33 -25h-114q-23 0 -33 25l-71 210l-71 -210q-10 -25 -33 -25h-114q-25 0 -33 25l-159 463l-1 8q0 10 7 17t17 7h124q25 0 34 -24l74 -227l74 227q9 24 34 24h94q25 0 34 -24zM496 751
q8 -4 18 -15l102 -112q5 -5 5 -13q0 -16 -16 -16h-67q-9 0 -16 3t-15 8l-74 43l-74 -43q-8 -5 -15 -8t-16 -3h-67q-16 0 -16 16q0 8 5 13l102 112q10 11 18 15t19 4h88q11 0 19 -4z" />
    <glyph glyph-name="wdieresis" unicode="&#x1e85;" horiz-adv-x="866" 
d="M514 496l74 -227l74 227q9 24 34 24h124q10 0 17 -7t7 -17l-1 -8l-159 -463q-8 -25 -33 -25h-114q-23 0 -33 25l-71 210l-71 -210q-10 -25 -33 -25h-114q-25 0 -33 25l-159 463l-1 8q0 10 7 17t17 7h124q25 0 34 -24l74 -227l74 227q9 24 34 24h94q25 0 34 -24zM390 603
q-8 -8 -19 -8h-101q-11 0 -19 8t-8 19v101q0 11 8 19t19 8h101q11 0 19 -8t8 -19v-101q0 -11 -8 -19zM615 603q-8 -8 -19 -8h-101q-11 0 -19 8t-8 19v101q0 11 8 19t19 8h101q11 0 19 -8t8 -19v-101q0 -11 -8 -19z" />
    <glyph glyph-name="wgrave" unicode="&#x1e81;" horiz-adv-x="866" 
d="M514 496l74 -227l74 227q9 24 34 24h124q10 0 17 -7t7 -17l-1 -8l-159 -463q-8 -25 -33 -25h-114q-23 0 -33 25l-71 210l-71 -210q-10 -25 -33 -25h-114q-25 0 -33 25l-159 463l-1 8q0 10 7 17t17 7h124q25 0 34 -24l74 -227l74 227q9 24 34 24h94q25 0 34 -24zM506 611
q0 -16 -16 -16h-88q-14 0 -22.5 4t-19.5 13l-135 111q-5 5 -5 12q0 9 5 14.5t14 5.5h133q12 0 19 -3.5t18 -15.5l92 -112q5 -5 5 -13z" />
    <glyph glyph-name="x" unicode="x" horiz-adv-x="616" 
d="M595 37q4 -6 4 -14q0 -9 -7 -16t-17 -7h-153q-11 0 -18 5.5t-14 13.5l-83 105l-82 -105q-7 -8 -14 -13.5t-18 -5.5h-153q-10 0 -17 7t-7 16q0 8 4 14l177 227l-172 219q-4 6 -4 14q0 9 7 16t17 7h155q11 0 18 -5.5t14 -13.5l77 -99l77 99q7 8 14 13.5t18 5.5h155
q10 0 17 -7t7 -16q0 -8 -4 -14l-173 -223z" />
    <glyph glyph-name="y" unicode="y" horiz-adv-x="626" 
d="M300 -190h-131q-10 0 -17 7t-7 17q0 4 1 7l76 179l-202 469q-1 3 -1 7q0 10 7 17t17 7h131q20 0 29 -24l111 -260l110 260q9 24 29 24h132q10 0 17 -7t7 -17q0 -4 -1 -7l-279 -655q-9 -24 -29 -24z" />
    <glyph glyph-name="yacute" unicode="&#xfd;" horiz-adv-x="626" 
d="M300 -190h-131q-10 0 -17 7t-7 17q0 4 1 7l76 179l-202 469q-1 3 -1 7q0 10 7 17t17 7h131q20 0 29 -24l111 -260l110 260q9 24 29 24h132q10 0 17 -7t7 -17q0 -4 -1 -7l-279 -655q-9 -24 -29 -24zM348 751.5q7 3.5 19 3.5h133q9 0 14 -5.5t5 -14.5q0 -7 -5 -12
l-135 -111q-11 -9 -19.5 -13t-22.5 -4h-88q-16 0 -16 16q0 8 5 13l92 112q11 12 18 15.5z" />
    <glyph glyph-name="ycircumflex" unicode="&#x177;" horiz-adv-x="626" 
d="M300 -190h-131q-10 0 -17 7t-7 17q0 4 1 7l76 179l-202 469q-1 3 -1 7q0 10 7 17t17 7h131q20 0 29 -24l111 -260l110 260q9 24 29 24h132q10 0 17 -7t7 -17q0 -4 -1 -7l-279 -655q-9 -24 -29 -24zM377 751q8 -4 18 -15l102 -112q5 -5 5 -13q0 -16 -16 -16h-67
q-9 0 -16 3t-15 8l-74 43l-74 -43q-8 -5 -15 -8t-16 -3h-67q-16 0 -16 16q0 8 5 13l102 112q10 11 18 15t19 4h88q11 0 19 -4z" />
    <glyph glyph-name="ydieresis" unicode="&#xff;" horiz-adv-x="626" 
d="M300 -190h-131q-10 0 -17 7t-7 17q0 4 1 7l76 179l-202 469q-1 3 -1 7q0 10 7 17t17 7h131q20 0 29 -24l111 -260l110 260q9 24 29 24h132q10 0 17 -7t7 -17q0 -4 -1 -7l-279 -655q-9 -24 -29 -24zM271 603q-8 -8 -19 -8h-101q-11 0 -19 8t-8 19v101q0 11 8 19t19 8h101
q11 0 19 -8t8 -19v-101q0 -11 -8 -19zM496 603q-8 -8 -19 -8h-101q-11 0 -19 8t-8 19v101q0 11 8 19t19 8h101q11 0 19 -8t8 -19v-101q0 -11 -8 -19z" />
    <glyph glyph-name="ygrave" unicode="&#x1ef3;" horiz-adv-x="626" 
d="M300 -190h-131q-10 0 -17 7t-7 17q0 4 1 7l76 179l-202 469q-1 3 -1 7q0 10 7 17t17 7h131q20 0 29 -24l111 -260l110 260q9 24 29 24h132q10 0 17 -7t7 -17q0 -4 -1 -7l-279 -655q-9 -24 -29 -24zM390 611q0 -16 -16 -16h-88q-14 0 -22.5 4t-19.5 13l-135 111
q-5 5 -5 12q0 9 5 14.5t14 5.5h133q12 0 19 -3.5t18 -15.5l92 -112q5 -5 5 -13z" />
    <glyph glyph-name="z" unicode="z" horiz-adv-x="564" 
d="M522 147q8 -8 8 -19v-101q0 -11 -8 -19t-19 -8h-436q-11 0 -19 8t-8 19v97q0 11 4 18.5t12 16.5l198 206h-177q-11 0 -19 8t-8 19v101q0 11 8 19t19 8h406q11 0 19 -8t8 -19v-97q0 -13 -14 -29l-203 -212h210q11 0 19 -8z" />
    <glyph glyph-name="zacute" unicode="&#x17a;" horiz-adv-x="564" 
d="M522 147q8 -8 8 -19v-101q0 -11 -8 -19t-19 -8h-436q-11 0 -19 8t-8 19v97q0 11 4 18.5t12 16.5l198 206h-177q-11 0 -19 8t-8 19v101q0 11 8 19t19 8h406q11 0 19 -8t8 -19v-97q0 -13 -14 -29l-203 -212h210q11 0 19 -8zM302 751.5q7 3.5 19 3.5h133q9 0 14 -5.5
t5 -14.5q0 -7 -5 -12l-135 -111q-11 -9 -19.5 -13t-22.5 -4h-88q-16 0 -16 16q0 8 5 13l92 112q11 12 18 15.5z" />
    <glyph glyph-name="zcaron" unicode="&#x17e;" horiz-adv-x="564" 
d="M522 147q8 -8 8 -19v-101q0 -11 -8 -19t-19 -8h-436q-11 0 -19 8t-8 19v97q0 11 4 18.5t12 16.5l198 206h-177q-11 0 -19 8t-8 19v101q0 11 8 19t19 8h406q11 0 19 -8t8 -19v-97q0 -13 -14 -29l-203 -212h210q11 0 19 -8zM214 599q-8 4 -18 15l-102 112q-5 5 -5 13
q0 16 16 16h67q9 0 16 -3t15 -8l74 -43l74 43q8 5 15 8t16 3h67q16 0 16 -16q0 -8 -5 -13l-102 -112q-10 -11 -18 -15t-19 -4h-88q-11 0 -19 4z" />
    <glyph glyph-name="zdotaccent" unicode="&#x17c;" horiz-adv-x="564" 
d="M522 147q8 -8 8 -19v-101q0 -11 -8 -19t-19 -8h-436q-11 0 -19 8t-8 19v97q0 11 4 18.5t12 16.5l198 206h-177q-11 0 -19 8t-8 19v101q0 11 8 19t19 8h406q11 0 19 -8t8 -19v-97q0 -13 -14 -29l-203 -212h210q11 0 19 -8zM344 603q-8 -8 -19 -8h-111q-11 0 -19 8t-8 19
v111q0 11 8 19t19 8h111q11 0 19 -8t8 -19v-111q0 -11 -8 -19z" />
    <glyph glyph-name="ordfeminine" unicode="&#xaa;" horiz-adv-x="356" 
d="M209 463q-9 -15 -27 -24.5t-44 -9.5q-45 0 -75 22t-30 58q0 71 128 93l43 7q0 26 -27 26q-10 0 -22 -8q-5 -3 -11 -5.5t-13 -2.5h-53q-22 0 -22 15q0 12 13 28.5t40.5 29.5t68.5 13q66 0 97.5 -28.5t31.5 -79.5v-141q0 -10 -6 -16t-16 -6h-54q-10 0 -16 6t-6 16v7z
M204 549l-27 -6q-24 -5 -32.5 -12t-8.5 -17q0 -15 22 -15t34 14t12 30v6z" />
    <glyph glyph-name="ordmasculine" unicode="&#xba;" horiz-adv-x="352" 
d="M317 567q0 -22 -1 -27q-3 -52 -43 -81.5t-97 -29.5t-97 29.5t-43 81.5l-1 27l1 27q3 51 45 81t95 30t95 -30t45 -81q1 -5 1 -27zM146 567l1 -22q1 -23 8 -31.5t21 -8.5t21 8.5t8 31.5q1 5 1 22q0 35 -7 48.5t-23 13.5q-13 0 -20.5 -9t-8.5 -31z" />
    <glyph glyph-name="uni0410" unicode="&#x410;" 
d="M703 37q4 -10 4 -15q0 -9 -6.5 -15.5t-15.5 -6.5h-126q-17 0 -26.5 7.5t-12.5 17.5l-28 83h-266l-28 -83q-3 -10 -12.5 -17.5t-26.5 -7.5h-126q-9 0 -15.5 6.5t-6.5 15.5q0 5 4 15l218 630q5 14 16 23.5t29 9.5h162q18 0 29 -9.5t16 -23.5zM440 263l-81 240l-81 -240h162
z" />
    <glyph glyph-name="uni0411" unicode="&#x411;" horiz-adv-x="665" 
d="M610.5 107.5q-25.5 -49.5 -75 -78.5t-117.5 -29h-321q-11 0 -19 8t-8 19v646q0 11 8 19t19 8h457q11 0 19 -8t8 -19v-106q0 -11 -8 -19t-19 -8h-299v-104h163q68 0 117.5 -29t75 -78.5t25.5 -110.5t-25.5 -110.5zM255 276v-116h128q68 0 68 58t-68 58h-128z" />
    <glyph glyph-name="uni0412" unicode="&#x412;" horiz-adv-x="712" 
d="M78 8q-8 8 -8 19v646q0 11 8 19t19 8h322q85 0 138 -30t76.5 -76.5t23.5 -101.5q0 -50 -17.5 -80.5t-38.5 -46.5q38 -26 54 -61.5t16 -86.5q0 -93 -56 -155t-175 -62h-343q-11 0 -19 8zM255 545v-114h155q30 0 45.5 15t15.5 42t-15.5 42t-45.5 15h-155zM420 155
q30 0 48 17t18 44t-18 44t-48 17h-165v-122h165z" />
    <glyph glyph-name="uni0413" unicode="&#x413;" horiz-adv-x="607" 
d="M583 692q8 -8 8 -19v-106q0 -11 -8 -19t-19 -8h-309v-513q0 -11 -8 -19t-19 -8h-131q-11 0 -19 8t-8 19v646q0 11 8 19t19 8h467q11 0 19 -8z" />
    <glyph glyph-name="uni0403" unicode="&#x403;" horiz-adv-x="607" 
d="M583 692q8 -8 8 -19v-106q0 -11 -8 -19t-19 -8h-309v-513q0 -11 -8 -19t-19 -8h-131q-11 0 -19 8t-8 19v646q0 11 8 19t19 8h467q11 0 19 -8zM365 906.5q7 3.5 19 3.5h143q9 0 14 -5.5t5 -14.5q0 -7 -5 -12l-135 -111q-11 -9 -19.5 -13t-22.5 -4h-98q-16 0 -16 16
q0 8 5 13l92 112q11 12 18 15.5z" />
    <glyph glyph-name="uni0490" unicode="&#x490;" horiz-adv-x="608" 
d="M255 27q0 -11 -8 -19t-19 -8h-131q-11 0 -19 8t-8 19v646q0 11 8 19t19 8h309v83q0 11 8 19t19 8h131q11 0 19 -8t8 -19v-216q0 -11 -8 -19t-19 -8h-309v-513z" />
    <glyph glyph-name="uni0414" unicode="&#x414;" horiz-adv-x="785" 
d="M24 133q0 11 8 19t19 8h6q36 0 51 25t15 79v409q0 11 8 19t19 8h508q11 0 19 -8t8 -19v-513h32q11 0 19 -8t8 -19v-216q0 -11 -8 -19t-19 -8h-131q-11 0 -19 8t-8 19v83h-350v-83q0 -11 -8 -19t-19 -8h-131q-11 0 -19 8t-8 19v216zM500 540h-192v-287q0 -72 -18 -93h210
v380z" />
    <glyph glyph-name="uni0415" unicode="&#x415;" horiz-adv-x="643" 
d="M255 272h286q11 0 19 8t8 19v106q0 11 -8 19t-19 8h-286v108h308q11 0 19 8t8 19v106q0 11 -8 19t-19 8h-466q-11 0 -19 -8t-8 -19v-646q0 -11 8 -19t19 -8h474q11 0 19 8t8 19v106q0 11 -8 19t-19 8h-316v112z" />
    <glyph glyph-name="uni0400" unicode="&#x400;" horiz-adv-x="643" 
d="M255 272h286q11 0 19 8t8 19v106q0 11 -8 19t-19 8h-286v108h308q11 0 19 8t8 19v106q0 11 -8 19t-19 8h-466q-11 0 -19 -8t-8 -19v-646q0 -11 8 -19t19 -8h474q11 0 19 8t8 19v106q0 11 -8 19t-19 8h-316v112zM415 766q0 -16 -16 -16h-98q-14 0 -22.5 4t-19.5 13
l-135 111q-5 5 -5 12q0 9 5 14.5t14 5.5h143q12 0 19 -3.5t18 -15.5l92 -112q5 -5 5 -13z" />
    <glyph glyph-name="uni0401" unicode="&#x401;" horiz-adv-x="643" 
d="M277 758q-8 -8 -19 -8h-101q-11 0 -19 8t-8 19v101q0 11 8 19t19 8h101q11 0 19 -8t8 -19v-101q0 -11 -8 -19zM532 758q-8 -8 -19 -8h-101q-11 0 -19 8t-8 19v101q0 11 8 19t19 8h101q11 0 19 -8t8 -19v-101q0 -11 -8 -19zM255 272h286q11 0 19 8t8 19v106q0 11 -8 19
t-19 8h-286v108h308q11 0 19 8t8 19v106q0 11 -8 19t-19 8h-466q-11 0 -19 -8t-8 -19v-646q0 -11 8 -19t19 -8h474q11 0 19 8t8 19v106q0 11 -8 19t-19 8h-316v112z" />
    <glyph glyph-name="uni0416" unicode="&#x416;" horiz-adv-x="872" 
d="M844.5 693.5q6.5 -6.5 6.5 -15.5q0 -5 -3 -11l-221 -311l231 -323q3 -5 3 -11q0 -9 -6.5 -15.5t-15.5 -6.5h-152q-17 0 -25 5.5t-16 17.5l-117 164v-160q0 -11 -8 -19t-19 -8h-131q-11 0 -19 8t-8 19v161l-118 -165q-8 -12 -16 -17.5t-25 -5.5h-152q-9 0 -15.5 6.5
t-6.5 15.5q0 6 3 11l231 323l-221 311q-3 6 -3 11q0 9 6.5 15.5t15.5 6.5h151q17 0 25.5 -7t16.5 -18l108 -152v150q0 11 8 19t19 8h131q11 0 19 -8t8 -19v-148l107 150q8 11 16.5 18t25.5 7h151q9 0 15.5 -6.5z" />
    <glyph glyph-name="uni0417" unicode="&#x417;" horiz-adv-x="669" 
d="M60 489q-9 0 -16 6.5t-6 15.5q3 48 36.5 93.5t96 75.5t148.5 30q92 0 158 -29t100 -79t34 -112q0 -78 -65 -131q84 -59 84 -149q0 -62 -35 -112t-103 -79t-163 -29q-87 0 -155 28t-106 74t-40 96q0 9 6.5 15.5t15.5 6.5h133q11 0 18 -4.5t16 -14.5q17 -19 39.5 -30
t72.5 -11q60 0 88 16.5t28 43.5t-28 44t-88 17h-75q-11 0 -19 8t-8 19v106q0 11 8 19t19 8h65q56 0 81 16t25 43t-25 43.5t-81 16.5q-40 0 -58.5 -11.5t-32.5 -28.5q-9 -11 -15.5 -16t-18.5 -5h-134z" />
    <glyph glyph-name="uni0418" unicode="&#x418;" horiz-adv-x="726" 
d="M97 0q-11 0 -19 8t-8 19v646q0 11 8 19t19 8h131q11 0 19 -8t8 -19v-338l229 342q4 8 15 15.5t26 7.5h104q11 0 19 -8t8 -19v-646q0 -11 -8 -19t-19 -8h-131q-11 0 -19 8t-8 19v338l-229 -342q-4 -8 -15 -15.5t-26 -7.5h-104z" />
    <glyph glyph-name="uni0419" unicode="&#x419;" horiz-adv-x="726" 
d="M199 904.5q5 5.5 14 5.5h84q9 0 14 -5.5t5 -13.5q0 -20 12.5 -35t34.5 -15t34.5 15t12.5 35q0 8 5 13.5t14 5.5h84q9 0 14 -5.5t5 -13.5q0 -35 -17.5 -68.5t-55.5 -55.5t-96 -22t-96 22t-55.5 55.5t-17.5 68.5q0 8 5 13.5zM97 0q-11 0 -19 8t-8 19v646q0 11 8 19t19 8
h131q11 0 19 -8t8 -19v-338l229 342q4 8 15 15.5t26 7.5h104q11 0 19 -8t8 -19v-646q0 -11 -8 -19t-19 -8h-131q-11 0 -19 8t-8 19v338l-229 -342q-4 -8 -15 -15.5t-26 -7.5h-104z" />
    <glyph glyph-name="uni040D" unicode="&#x40d;" horiz-adv-x="726" 
d="M499 7.5q-11 7.5 -15 15.5l-229 342v-338q0 -11 -8 -19t-19 -8h-131q-11 0 -19 8t-8 19v646q0 11 8 19t19 8h104q15 0 26 -7.5t15 -15.5l229 -342v338q0 11 8 19t19 8h131q11 0 19 -8t8 -19v-646q0 -11 -8 -19t-19 -8h-104q-15 0 -26 7.5zM437 766q0 -16 -16 -16h-98
q-14 0 -22.5 4t-19.5 13l-135 111q-5 5 -5 12q0 9 5 14.5t14 5.5h143q12 0 19 -3.5t18 -15.5l92 -112q5 -5 5 -13z" />
    <glyph glyph-name="uni041A" unicode="&#x41a;" horiz-adv-x="673" 
d="M666 22q0 -9 -6.5 -15.5t-15.5 -6.5h-159q-13 0 -22 5.5t-19 17.5l-189 238v-234q0 -11 -8 -19t-19 -8h-131q-11 0 -19 8t-8 19v646q0 11 8 19t19 8h131q11 0 19 -8t8 -19v-211l176 216q8 10 16 16t24 6h156q9 0 15.5 -6.5t6.5 -15.5q0 -6 -3 -11l-247 -302l264 -332
q3 -4 3 -11z" />
    <glyph glyph-name="uni040C" unicode="&#x40c;" horiz-adv-x="673" 
d="M400 906.5q7 3.5 19 3.5h143q9 0 14 -5.5t5 -14.5q0 -7 -5 -12l-135 -111q-11 -9 -19.5 -13t-22.5 -4h-98q-16 0 -16 16q0 8 5 13l92 112q11 12 18 15.5zM666 22q0 -9 -6.5 -15.5t-15.5 -6.5h-159q-13 0 -22 5.5t-19 17.5l-189 238v-234q0 -11 -8 -19t-19 -8h-131
q-11 0 -19 8t-8 19v646q0 11 8 19t19 8h131q11 0 19 -8t8 -19v-211l176 216q8 10 16 16t24 6h156q9 0 15.5 -6.5t6.5 -15.5q0 -6 -3 -11l-247 -302l264 -332q3 -4 3 -11z" />
    <glyph glyph-name="uni041B" unicode="&#x41b;" horiz-adv-x="754" 
d="M312 240q0 -119 -67.5 -184.5t-185.5 -65.5h-16q-11 0 -19 8t-8 19v106q0 11 8 19t19 8q45 0 64.5 21t19.5 69v433q0 11 8 19t19 8h503q11 0 19 -8t8 -19v-646q0 -11 -8 -19t-19 -8h-131q-11 0 -19 8t-8 19v513h-187v-300z" />
    <glyph glyph-name="uni041C" unicode="&#x41c;" horiz-adv-x="836" 
d="M255 358v-331q0 -11 -8 -19t-19 -8h-131q-11 0 -19 8t-8 19v646q0 11 8 19t19 8h116q28 0 43 -27l162 -277l162 277q15 27 43 27h116q11 0 19 -8t8 -19v-646q0 -11 -8 -19t-19 -8h-131q-11 0 -19 8t-8 19v331l-94 -165q-7 -11 -15.5 -18t-21.5 -7h-64q-13 0 -21.5 7
t-15.5 18z" />
    <glyph glyph-name="uni041D" unicode="&#x41d;" horiz-adv-x="732" 
d="M654 692q8 -8 8 -19v-646q0 -11 -8 -19t-19 -8h-131q-11 0 -19 8t-8 19v245h-222v-245q0 -11 -8 -19t-19 -8h-131q-11 0 -19 7.5t-8 19.5v646q0 11 8 19t19 8h131q11 0 19 -8t8 -19v-241h222v241q0 11 8 19t19 8h131q11 0 19 -8z" />
    <glyph glyph-name="uni041E" unicode="&#x41e;" 
d="M523 674q69 -36 106.5 -97.5t41.5 -137.5q2 -28 2 -90q0 -61 -2 -88q-4 -76 -41.5 -137.5t-106.5 -97.5t-164 -36t-164 36t-106.5 97.5t-41.5 137.5q-2 54 -2 88t2 90q4 76 41.5 137.5t106.5 97.5t164 36t164 -36zM449.5 518.5q-31.5 31.5 -90.5 31.5t-90.5 -31.5
t-36.5 -84.5q-3 -33 -3 -83q0 -49 3 -85q5 -53 36.5 -84.5t90.5 -31.5t90.5 31.5t36.5 84.5q3 36 3 85q0 50 -3 83q-5 53 -36.5 84.5z" />
    <glyph glyph-name="uni041F" unicode="&#x41f;" horiz-adv-x="752" 
d="M682 27q0 -11 -8 -19t-19 -8h-131q-11 0 -19 8t-8 19v513h-242v-513q0 -11 -8 -19t-19 -8h-131q-11 0 -19 8t-8 19v646q0 11 8 19t19 8h558q11 0 19 -8t8 -19v-646z" />
    <glyph glyph-name="uni0420" unicode="&#x420;" horiz-adv-x="686" 
d="M586.5 640.5q73.5 -59.5 73.5 -174.5t-73.5 -175t-203.5 -60h-128v-204q0 -11 -8 -19t-19 -8h-131q-11 0 -19 8t-8 19v646q0 11 8 19t19 8h286q130 0 203.5 -59.5zM378 387q44 0 70.5 19.5t26.5 59.5t-26.5 59.5t-70.5 19.5h-123v-158h123z" />
    <glyph glyph-name="uni0421" unicode="&#x421;" horiz-adv-x="702" 
d="M264.5 182q29.5 -32 92.5 -32q60 0 87 23t38 56q6 17 12 23t22 6h131q9 0 15.5 -6.5t6.5 -15.5q-1 -67 -42.5 -123.5t-112.5 -89.5t-157 -33q-93 0 -162 36.5t-107 98t-42 136.5q-2 48 -2 79q0 37 2 99q3 75 41 136.5t107.5 98t162.5 36.5q86 0 157 -33t112.5 -89.5
t42.5 -123.5q0 -9 -6.5 -15.5t-15.5 -6.5h-131q-16 0 -22 6t-12 23q-11 33 -38 56t-87 23q-63 0 -92.5 -32t-33.5 -84q-2 -34 -2 -84q0 -48 2 -84q4 -52 33.5 -84z" />
    <glyph glyph-name="uni0422" unicode="&#x422;" horiz-adv-x="631" 
d="M603 692q8 -8 8 -19v-106q0 -11 -8 -19t-19 -8h-176v-513q0 -11 -8 -19t-19 -8h-131q-11 0 -19 8t-8 19v513h-176q-11 0 -19 8t-8 19v106q0 11 8 19t19 8h537q11 0 19 -8z" />
    <glyph glyph-name="uni0423" unicode="&#x423;" horiz-adv-x="669" 
d="M304.5 51.5q-59.5 -51.5 -149.5 -51.5h-73q-11 0 -19 8t-8 19v106q0 11 8 19t19 8h73q23 0 45 20.5t48 67.5l-227 417q-4 7 -4 13q0 9 6.5 15.5t15.5 6.5h138q17 0 27.5 -8.5t14.5 -16.5l125 -246l127 246q4 8 14.5 16.5t27.5 8.5h137q9 0 15.5 -6.5t6.5 -15.5
q0 -6 -4 -13l-250 -462q-54 -100 -113.5 -151.5z" />
    <glyph glyph-name="uni040E" unicode="&#x40e;" horiz-adv-x="669" 
d="M304.5 51.5q-59.5 -51.5 -149.5 -51.5h-73q-11 0 -19 8t-8 19v106q0 11 8 19t19 8h73q23 0 45 20.5t48 67.5l-227 417q-4 7 -4 13q0 9 6.5 15.5t15.5 6.5h138q17 0 27.5 -8.5t14.5 -16.5l125 -246l127 246q4 8 14.5 16.5t27.5 8.5h137q9 0 15.5 -6.5t6.5 -15.5
q0 -6 -4 -13l-250 -462q-54 -100 -113.5 -151.5zM218 929.5q5 5.5 14 5.5h84q9 0 14 -5.5t5 -13.5q0 -20 11 -35t31 -15t31 15t11 35q0 8 5 13.5t14 5.5h84q9 0 14 -5.5t5 -13.5q0 -36 -16.5 -69t-53 -55t-94.5 -22t-94.5 22t-53 55t-16.5 69q0 8 5 13.5z" />
    <glyph glyph-name="uni0424" unicode="&#x424;" horiz-adv-x="797" 
d="M694.5 534.5q78.5 -66.5 78.5 -184.5t-78.5 -184.5t-203.5 -84.5v-74q0 -11 -8 -19t-19 -8h-131q-11 0 -19 8t-8 19v74q-125 18 -203.5 84.5t-78.5 184.5t78.5 184.5t203.5 84.5v74q0 11 8 19t19 8h131q11 0 19 -8t8 -19v-74q125 -18 203.5 -84.5zM209 350q0 -90 97 -109
v218q-97 -19 -97 -109zM491 241q97 19 97 109t-97 109v-218z" />
    <glyph glyph-name="uni0425" unicode="&#x425;" horiz-adv-x="711" 
d="M226 23q-8 -12 -16 -17.5t-25 -5.5h-152q-9 0 -15.5 6.5t-6.5 15.5q0 6 3 11l231 323l-221 311q-3 6 -3 11q0 9 6.5 15.5t15.5 6.5h151q17 0 25.5 -7t16.5 -18l121 -169l117 169q8 11 16.5 18t25.5 7h153q9 0 15.5 -6.5t6.5 -15.5q0 -5 -3 -11l-222 -315l229 -319
q3 -5 3 -11q0 -9 -6.5 -15.5t-15.5 -6.5h-152q-17 0 -25 5.5t-16 17.5l-129 180z" />
    <glyph glyph-name="uni0427" unicode="&#x427;" horiz-adv-x="695" 
d="M244 421.5q25 -25.5 85 -25.5h111v277q0 11 8 19t19 8h131q11 0 19 -8t8 -19v-646q0 -11 -8 -19t-19 -8h-131q-11 0 -19 8t-8 19v209h-140q-127 0 -196.5 69.5t-69.5 196.5v171q0 11 8 19t19 8h131q11 0 19 -8t8 -19v-166q0 -60 25 -85.5z" />
    <glyph glyph-name="uni0426" unicode="&#x426;" horiz-adv-x="761" 
d="M703 160q11 0 19 -8t8 -19v-216q0 -11 -8 -19t-19 -8h-111q-11 0 -19 8t-8 19v83h-468q-11 0 -19 8t-8 19v646q0 11 8 19t19 8h131q11 0 19 -8t8 -19v-513h202v513q0 11 8 19t19 8h131q11 0 19 -8t8 -19v-513h61z" />
    <glyph glyph-name="uni0428" unicode="&#x428;" horiz-adv-x="937" 
d="M78 8q-8 8 -8 19v646q0 11 8 19t19 8h131q11 0 19 -8t8 -19v-513h121v513q0 11 8 19t19 8h131q11 0 19 -8t8 -19v-513h121v513q0 11 8 19t19 8h131q11 0 19 -8t8 -19v-646q0 -11 -8 -19t-19 -8h-743q-11 0 -19 8z" />
    <glyph glyph-name="uni0429" unicode="&#x429;" horiz-adv-x="986" 
d="M70 673q0 11 8 19t19 8h131q11 0 19 -8t8 -19v-513h121v513q0 11 8 19t19 8h131q11 0 19 -8t8 -19v-513h121v513q0 11 8 19t19 8h131q11 0 19 -8t8 -19v-513h62q11 0 19 -8t8 -19v-216q0 -11 -8 -19t-19 -8h-111q-11 0 -19 8t-8 19v83h-694q-11 0 -19 8t-8 19v646z" />
    <glyph glyph-name="uni040F" unicode="&#x40f;" horiz-adv-x="713" 
d="M449 -83q0 -11 -8 -19t-19 -8h-131q-11 0 -19 8t-8 19v83h-167q-11 0 -19 8t-8 19v646q0 11 8 19t19 8h131q11 0 19 -8t8 -19v-513h203v513q0 11 8 19t19 8h131q11 0 19 -8t8 -19v-646q0 -11 -8 -19t-19 -8h-167v-83z" />
    <glyph glyph-name="uni042C" unicode="&#x42c;" horiz-adv-x="660" 
d="M228 700q11 0 19 -8t8 -19v-237h163q68 0 117.5 -29t75 -78.5t25.5 -110.5t-25.5 -110.5t-75 -78.5t-117.5 -29h-321q-11 0 -19 8t-8 19v646q0 11 8 19t19 8h131zM255 276v-116h128q68 0 68 58t-68 58h-128z" />
    <glyph glyph-name="uni042A" unicode="&#x42a;" horiz-adv-x="748" 
d="M316 700q11 0 19 -8t8 -19v-237h163q68 0 117.5 -29t75 -78.5t25.5 -110.5t-25.5 -110.5t-75 -78.5t-117.5 -29h-321q-11 0 -19 8t-8 19v513h-111q-11 0 -19 8t-8 19v106q0 11 8 19t19 8h269zM343 276v-116h128q68 0 68 58t-68 58h-128z" />
    <glyph glyph-name="uni042B" unicode="&#x42b;" horiz-adv-x="931" 
d="M228 700q11 0 19 -8t8 -19v-237h163q68 0 117.5 -29t75 -78.5t25.5 -110.5t-25.5 -110.5t-75 -78.5t-117.5 -29h-321q-11 0 -19 8t-8 19v646q0 11 8 19t19 8h131zM853 692q8 -8 8 -19v-646q0 -11 -8 -19t-19 -8h-131q-11 0 -19 8t-8 19v646q0 11 8 19t19 8h131
q11 0 19 -8zM255 276v-116h128q68 0 68 58t-68 58h-128z" />
    <glyph glyph-name="uni0409" unicode="&#x409;" horiz-adv-x="1062" 
d="M649 692q8 -8 8 -19v-237h163q68 0 117.5 -29t75 -78.5t25.5 -110.5t-25.5 -110.5t-75 -78.5t-117.5 -29h-321q-11 0 -19 8t-8 19v513h-160v-300q0 -119 -67.5 -184.5t-185.5 -65.5h-16q-11 0 -19 8t-8 19v106q0 11 8 19t19 8q45 0 64.5 21t19.5 69v433q0 11 8 19t19 8
h476q11 0 19 -8zM657 276v-116h128q68 0 68 58t-68 58h-128z" />
    <glyph glyph-name="uni040A" unicode="&#x40a;" horiz-adv-x="1045" 
d="M613 700q11 0 19 -8t8 -19v-237h163q68 0 117.5 -29t75 -78.5t25.5 -110.5t-25.5 -110.5t-75 -78.5t-117.5 -29h-321q-11 0 -19 8t-8 19v245h-200v-245q0 -11 -8 -19t-19 -8h-131q-11 0 -19 7.5t-8 19.5v646q0 11 8 19t19 8h131q11 0 19 -8t8 -19v-241h200v241q0 11 8 19
t19 8h131zM640 276v-116h128q68 0 68 58t-68 58h-128z" />
    <glyph glyph-name="uni0405" unicode="&#x405;" horiz-adv-x="674" 
d="M617.5 497.5q-6.5 -6.5 -14.5 -6.5h-131q-14 0 -22 3.5t-18 12.5l-13 13.5t-34.5 20.5t-54.5 9q-43 0 -70.5 -11.5t-27.5 -39.5q0 -20 17 -31.5t52.5 -20.5t123.5 -27q113 -23 166 -72t53 -140q0 -66 -39.5 -115.5t-110 -76t-159.5 -26.5q-86 0 -156 30t-110 78t-42 99
q0 9 6.5 15.5t14.5 6.5h131q22 0 38 -14q3 -3 16 -17.5t39.5 -26t62.5 -11.5q124 0 124 53q0 17 -17.5 28.5t-49.5 19.5t-102 23l-45 9q-102 22 -150 73.5t-48 137.5q0 58 35 107.5t99.5 79t148.5 29.5q81 0 148 -30.5t105.5 -76.5t40.5 -90q0 -9 -6.5 -15.5z" />
    <glyph glyph-name="uni0404" unicode="&#x404;" horiz-adv-x="695" 
d="M487.5 219q7.5 6 20.5 6h133q9 0 16 -6.5t6 -15.5q-3 -47 -41.5 -97t-107 -83t-157.5 -33q-92 0 -160.5 37.5t-106.5 100.5t-44 138q-3 41 -3 83q0 43 3 85q5 75 43 138t106.5 100.5t161.5 37.5q89 0 157.5 -33t107 -83t41.5 -97q1 -9 -6 -15.5t-16 -6.5h-133
q-13 0 -20.5 6.5t-19.5 20.5q-18 22 -42.5 35t-68.5 13q-62 0 -92 -34t-34 -86h189q11 0 19 -8t8 -19v-106q0 -11 -8 -19t-19 -8h-189q4 -52 34 -86t92 -34q44 0 68.5 13t42.5 35q12 15 19.5 21z" />
    <glyph glyph-name="uni042D" unicode="&#x42d;" horiz-adv-x="695" 
d="M275 270q-11 0 -19 8t-8 19v106q0 11 8 19t19 8h189q-4 52 -34 86t-92 34q-44 0 -68.5 -13t-42.5 -35q-12 -14 -19.5 -20.5t-20.5 -6.5h-133q-9 0 -16 6.5t-6 15.5q3 47 41.5 97t107 83t157.5 33q93 0 161.5 -37.5t106.5 -100.5t43 -138q3 -42 3 -85q0 -42 -3 -83
q-6 -75 -44 -138t-106.5 -100.5t-160.5 -37.5q-89 0 -157.5 33t-107 83t-41.5 97q-1 9 6 15.5t16 6.5h133q13 0 20.5 -6t19.5 -21q18 -22 42.5 -35t68.5 -13q62 0 92 34t34 86h-189z" />
    <glyph glyph-name="uni0406" unicode="&#x406;" horiz-adv-x="325" 
d="M78 8q-8 8 -8 19v646q0 11 8 19t19 8h131q11 0 19 -8t8 -19v-646q0 -11 -8 -19t-19 -8h-131q-11 0 -19 8z" />
    <glyph glyph-name="uni0407" unicode="&#x407;" horiz-adv-x="325" 
d="M78 8q-8 8 -8 19v646q0 11 8 19t19 8h131q11 0 19 -8t8 -19v-646q0 -11 -8 -19t-19 -8h-131q-11 0 -19 8zM103 758q-8 -8 -19 -8h-101q-11 0 -19 8t-8 19v101q0 11 8 19t19 8h101q11 0 19 -8t8 -19v-101q0 -11 -8 -19zM358 758q-8 -8 -19 -8h-101q-11 0 -19 8t-8 19v101
q0 11 8 19t19 8h101q11 0 19 -8t8 -19v-101q0 -11 -8 -19z" />
    <glyph glyph-name="uni0408" unicode="&#x408;" horiz-adv-x="685" 
d="M581 110.5q-40 -59.5 -108 -90t-150 -30.5q-85 0 -152.5 29t-106 83t-39.5 124q0 9 6.5 15.5t15.5 6.5h128q18 0 24.5 -5.5t12.5 -23.5q12 -35 38 -52t73 -17q56 0 85 28.5t29 82.5v279h-342q-11 0 -19 8t-8 19v106q0 11 8 19t19 8h499q11 0 19 -8t8 -19v-418
q0 -85 -40 -144.5z" />
    <glyph glyph-name="uni040B" unicode="&#x40b;" horiz-adv-x="797" 
d="M551 294.5q-25 25.5 -85 25.5h-111v-293q0 -11 -8 -19t-19 -8h-131q-11 0 -19 8t-8 19v513h-124q-11 0 -19 8t-8 19v106q0 11 8 19t19 8h452q11 0 19 -8t8 -19v-106q0 -11 -8 -19t-19 -8h-143v-60h140q128 0 197 -69t69 -197v-187q0 -11 -8 -19t-19 -8h-131q-11 0 -19 8
t-8 19v182q0 60 -25 85.5z" />
    <glyph glyph-name="uni042E" unicode="&#x42e;" horiz-adv-x="1048" 
d="M853 674q69 -36 106.5 -97.5t41.5 -137.5q2 -28 2 -90q0 -61 -2 -88q-4 -76 -41.5 -137.5t-106.5 -97.5t-164 -36t-164 36.5t-106.5 100t-41.5 145.5h-122v-245q0 -11 -8 -19t-19 -8h-131q-11 0 -19 8t-8 19v646q0 11 8 19t19 8h131q11 0 19 -8t8 -19v-241h122
q4 80 41.5 143t106.5 99t164 36t164 -36zM779.5 518.5q-31.5 31.5 -90.5 31.5t-90.5 -31.5t-36.5 -84.5q-3 -33 -3 -83q0 -49 3 -85q5 -53 36.5 -84.5t90.5 -31.5t90.5 31.5t36.5 84.5q3 36 3 85q0 50 -3 83q-5 53 -36.5 84.5z" />
    <glyph glyph-name="uni042F" unicode="&#x42f;" horiz-adv-x="695" 
d="M598 700q11 0 19 -8t8 -19v-646q0 -11 -8 -19t-19 -8h-131q-11 0 -19 8t-8 19v214h-92l-111 -214q-6 -12 -15 -19.5t-27 -7.5h-136q-9 0 -15.5 6.5t-6.5 15.5q0 5 3 11l124 238q-119 55 -119 200q0 114 74 171.5t208 57.5h271zM440 545h-113q-97 0 -97 -74t97 -74h113
v148z" />
    <glyph glyph-name="uni0402" unicode="&#x402;" horiz-adv-x="797" 
d="M551 294.5q-25 25.5 -85 25.5h-111v-293q0 -11 -8 -19t-19 -8h-131q-11 0 -19 8t-8 19v513h-124q-11 0 -19 8t-8 19v106q0 11 8 19t19 8h452q11 0 19 -8t8 -19v-106q0 -11 -8 -19t-19 -8h-143v-60h140q128 0 197 -69t69 -197v-231q0 -94 -53 -151t-145 -57h-70
q-11 0 -19 8t-8 19v106q0 11 8 19t19 8h40q22 0 32.5 13.5t10.5 34.5v226q0 60 -25 85.5z" />
    <glyph glyph-name="uni0430" unicode="&#x430;" horiz-adv-x="589" 
d="M356 340q0 55 -58 55q-33 0 -54 -18q-8 -8 -16 -10t-20 -2h-127q-10 0 -16.5 6t-5.5 16q3 31 34.5 64.5t85.5 56t119 22.5q119 0 178.5 -54t59.5 -146v-303q0 -11 -8 -19t-19 -8h-126q-11 0 -19 8t-8 19v28q-26 -32 -62 -48.5t-91 -16.5q-84 0 -131.5 44t-47.5 114
q0 67 52 110t163 62zM264 207q-28 -5 -44 -17.5t-16 -30.5q0 -34 48 -34q44 0 74 28t30 68z" />
    <glyph glyph-name="uni0431" unicode="&#x431;" horiz-adv-x="590" 
d="M259 722q8 8 19 8h126q11 0 19 -8t8 -19q0 -43 -21.5 -79t-66.5 -89q-28 -31 -53 -65q72 0 133 -27t98 -81t37 -132t-36.5 -132t-96.5 -81t-132 -27t-130 27.5t-92.5 83.5t-34.5 139q0 82 21.5 145t50 104t72.5 92q37 41 54 67t17 55q0 11 8 19zM368 230q0 85 -76 85
t-76 -85t76 -85t76 85z" />
    <glyph glyph-name="uni0432" unicode="&#x432;" horiz-adv-x="626" 
d="M64 6q-6 6 -6 14v480q0 8 6 14t14 6h291q59 0 107 -18t75.5 -52t27.5 -79q0 -63 -43 -102q29 -20 41 -47t12 -68q0 -74 -56.5 -114t-148.5 -40h-306q-8 0 -14 6zM250 390v-72h89q21 0 31.5 11t10.5 25t-10.5 25t-31.5 11h-89zM347 130q21 0 32.5 11t11.5 26t-11.5 26
t-32.5 11h-97v-74h97z" />
    <glyph glyph-name="uni0433" unicode="&#x433;" horiz-adv-x="506" 
d="M483 512q8 -8 8 -19v-101q0 -11 -8 -19t-19 -8h-226v-338q0 -11 -8 -19t-19 -8h-126q-11 0 -19 8t-8 19v466q0 11 8 19t19 8h379q11 0 19 -8z" />
    <glyph glyph-name="uni0453" unicode="&#x453;" horiz-adv-x="506" 
d="M483 512q8 -8 8 -19v-101q0 -11 -8 -19t-19 -8h-226v-338q0 -11 -8 -19t-19 -8h-126q-11 0 -19 8t-8 19v466q0 11 8 19t19 8h379q11 0 19 -8zM315 751.5q7 3.5 19 3.5h133q9 0 14 -5.5t5 -14.5q0 -7 -5 -12l-135 -111q-11 -9 -19.5 -13t-22.5 -4h-88q-16 0 -16 16
q0 8 5 13l92 112q11 12 18 15.5z" />
    <glyph glyph-name="uni0491" unicode="&#x491;" horiz-adv-x="519" 
d="M330 603q0 11 8 19t19 8h121q11 0 19 -8t8 -19v-206q0 -11 -8 -19t-19 -8h-245v-343q0 -11 -8 -19t-19 -8h-121q-11 0 -19 8t-8 19v466q0 11 8 19t19 8h245v83z" />
    <glyph glyph-name="uni0434" unicode="&#x434;" horiz-adv-x="643" 
d="M424 0h-218v-76q0 -11 -8 -19t-19 -8h-126q-11 0 -19 8t-8 19v204q0 11 8 19t19 8h30q19 0 26 15t7 43v280q0 11 8 19t19 8h376q11 0 19 -8t8 -19v-338h31q11 0 19 -8t8 -19v-204q0 -11 -8 -19t-19 -8h-126q-11 0 -19 8t-8 19v76zM366 365h-70v-161q0 -25 -8 -49h78v210z
" />
    <glyph glyph-name="uni0435" unicode="&#x435;" horiz-adv-x="607" 
d="M241 143q27 -18 63 -18q28 0 46 6t31 17q11 9 16 11.5t17 2.5h130q10 0 16 -6t6 -16q0 -20 -30 -56.5t-89 -65t-143 -28.5q-129 0 -199.5 71.5t-70.5 198.5q0 79 31.5 140t92.5 95.5t146 34.5q93 0 153.5 -39.5t88.5 -102t28 -130.5v-28q0 -11 -8 -19t-19 -8h-333
q0 -42 27 -60zM394 314q-4 34 -27.5 57.5t-62.5 23.5t-62.5 -23.5t-27.5 -57.5h180z" />
    <glyph glyph-name="uni0450" unicode="&#x450;" horiz-adv-x="607" 
d="M384 611q0 -16 -16 -16h-88q-14 0 -22.5 4t-19.5 13l-135 111q-5 5 -5 12q0 9 5 14.5t14 5.5h133q12 0 19 -3.5t18 -15.5l92 -112q5 -5 5 -13zM241 143q27 -18 63 -18q28 0 46 6t31 17q11 9 16 11.5t17 2.5h130q10 0 16 -6t6 -16q0 -20 -30 -56.5t-89 -65t-143 -28.5
q-129 0 -199.5 71.5t-70.5 198.5q0 79 31.5 140t92.5 95.5t146 34.5q93 0 153.5 -39.5t88.5 -102t28 -130.5v-28q0 -11 -8 -19t-19 -8h-333q0 -42 27 -60zM394 314q-4 34 -27.5 57.5t-62.5 23.5t-62.5 -23.5t-27.5 -57.5h180z" />
    <glyph glyph-name="uni0451" unicode="&#x451;" horiz-adv-x="607" 
d="M261 603q-8 -8 -19 -8h-101q-11 0 -19 8t-8 19v101q0 11 8 19t19 8h101q11 0 19 -8t8 -19v-101q0 -11 -8 -19zM486 603q-8 -8 -19 -8h-101q-11 0 -19 8t-8 19v101q0 11 8 19t19 8h101q11 0 19 -8t8 -19v-101q0 -11 -8 -19zM241 143q27 -18 63 -18q28 0 46 6t31 17
q11 9 16 11.5t17 2.5h130q10 0 16 -6t6 -16q0 -20 -30 -56.5t-89 -65t-143 -28.5q-129 0 -199.5 71.5t-70.5 198.5q0 79 31.5 140t92.5 95.5t146 34.5q93 0 153.5 -39.5t88.5 -102t28 -130.5v-28q0 -11 -8 -19t-19 -8h-333q0 -42 27 -60zM394 314q-4 34 -27.5 57.5
t-62.5 23.5t-62.5 -23.5t-27.5 -57.5h180z" />
    <glyph glyph-name="uni0436" unicode="&#x436;" horiz-adv-x="794" 
d="M766 513q7 -7 7 -16q0 -8 -4 -14l-172 -219l177 -227q4 -6 4 -14q0 -9 -7 -16t-17 -7h-153q-11 0 -18 5.5t-14 13.5l-82 105v-97q0 -11 -8 -19t-19 -8h-126q-11 0 -19 8t-8 19v97l-82 -105q-7 -8 -14 -13.5t-18 -5.5h-153q-10 0 -17 7t-7 16q0 8 4 14l177 227l-172 219
q-4 6 -4 14q0 9 7 16t17 7h155q11 0 18 -5.5t14 -13.5l75 -97v89q0 11 8 19t19 8h126q11 0 19 -8t8 -19v-89l75 97q7 8 14 13.5t18 5.5h155q10 0 17 -7z" />
    <glyph glyph-name="uni0437" unicode="&#x437;" horiz-adv-x="574" 
d="M410.5 505.5q56.5 -24.5 87.5 -65t31 -86.5q0 -28 -8.5 -48t-28.5 -42q24 -23 35.5 -45.5t11.5 -52.5q0 -46 -32 -86.5t-91 -65t-135 -24.5q-72 0 -131 23.5t-92.5 59t-33.5 68.5q0 10 8 17.5t19 7.5h121q12 0 19 -3t15 -9q16 -9 31 -14t44 -5q38 0 58 7t20 24
q0 16 -21 24t-57 8h-31q-11 0 -19 8t-8 19v71q0 11 8 19t19 8h31q31 0 49.5 8t18.5 23t-18.5 23t-49.5 8q-25 0 -38 -5t-26 -15q-10 -7 -17 -10t-18 -3h-121q-11 0 -19 7.5t-8 17.5q0 33 31 69t87.5 60t128.5 24q73 0 129.5 -24.5z" />
    <glyph glyph-name="uni0438" unicode="&#x438;" horiz-adv-x="650" 
d="M420 8q-8 8 -8 19v220l-189 -236q-9 -11 -23 -11h-116q-11 0 -18.5 8t-7.5 19v466q0 11 8 19t19 8h126q11 0 19 -8t8 -19v-221l189 237q9 11 22 11h116q11 0 19 -8t8 -19v-466q0 -11 -8 -19t-19 -8h-126q-11 0 -19 8z" />
    <glyph glyph-name="uni0439" unicode="&#x439;" horiz-adv-x="650" 
d="M420 8q-8 8 -8 19v220l-189 -236q-9 -11 -23 -11h-116q-11 0 -18.5 8t-7.5 19v466q0 11 8 19t19 8h126q11 0 19 -8t8 -19v-221l189 237q9 11 22 11h116q11 0 19 -8t8 -19v-466q0 -11 -8 -19t-19 -8h-126q-11 0 -19 8zM166 749.5q5 5.5 14 5.5h84q9 0 14 -5.5t5 -13.5
q0 -20 11 -35t31 -15t31 15t11 35q0 8 5 13.5t14 5.5h84q9 0 14 -5.5t5 -13.5q0 -36 -16.5 -69t-53 -55t-94.5 -22t-94.5 22t-53 55t-16.5 69q0 8 5 13.5z" />
    <glyph glyph-name="uni045D" unicode="&#x45d;" horiz-adv-x="650" 
d="M420 8q-8 8 -8 19v220l-189 -236q-9 -11 -23 -11h-116q-11 0 -18.5 8t-7.5 19v466q0 11 8 19t19 8h126q11 0 19 -8t8 -19v-221l189 237q9 11 22 11h116q11 0 19 -8t8 -19v-466q0 -11 -8 -19t-19 -8h-126q-11 0 -19 8zM404 611q0 -16 -16 -16h-88q-14 0 -22.5 4t-19.5 13
l-135 111q-5 5 -5 12q0 9 5 14.5t14 5.5h133q12 0 19 -3.5t18 -15.5l92 -112q5 -5 5 -13z" />
    <glyph glyph-name="uni043A" unicode="&#x43a;" horiz-adv-x="607" 
d="M377 503q17 17 39 17h143q10 0 17 -7t7 -17q0 -5 -2 -9t-9 -11l-182 -211l203 -222q10 -11 10 -19q0 -10 -7 -17t-17 -7h-150q-26 0 -41 17l-150 164v-154q0 -11 -8 -19t-19 -8h-126q-11 0 -19 8t-8 19v466q0 11 8 19t19 8h126q11 0 19 -8t8 -19v-144z" />
    <glyph glyph-name="uni045C" unicode="&#x45c;" horiz-adv-x="607" 
d="M377 503q17 17 39 17h143q10 0 17 -7t7 -17q0 -5 -2 -9t-9 -11l-182 -211l203 -222q10 -11 10 -19q0 -10 -7 -17t-17 -7h-150q-26 0 -41 17l-150 164v-154q0 -11 -8 -19t-19 -8h-126q-11 0 -19 8t-8 19v466q0 11 8 19t19 8h126q11 0 19 -8t8 -19v-144zM340 751.5
q7 3.5 19 3.5h133q9 0 14 -5.5t5 -14.5q0 -7 -5 -12l-135 -111q-11 -9 -19.5 -13t-22.5 -4h-88q-16 0 -16 16q0 8 5 13l92 112q11 12 18 15.5z" />
    <glyph glyph-name="uni043B" unicode="&#x43b;" horiz-adv-x="632" 
d="M299 202q0 -105 -62 -158.5t-176 -53.5h-16q-11 0 -19 8t-8 19v101q0 11 8 19t19 8q44 0 59 12t15 50v286q0 11 8 19t19 8h401q11 0 19 -8t8 -19v-466q0 -11 -8 -19t-19 -8h-126q-11 0 -19 8t-8 19v338h-95v-163z" />
    <glyph glyph-name="uni043C" unicode="&#x43c;" 
d="M492.5 514.5q7.5 5.5 25.5 5.5h115q11 0 19 -8t8 -19v-466q0 -11 -8 -19t-19 -8h-126q-11 0 -19 8t-8 19v190l-69 -110q-14 -22 -32 -22h-40q-18 0 -32 22l-69 110v-190q0 -11 -8 -19t-19 -8h-126q-11 0 -19 8t-8 19v466q0 11 8 19t19 8h115q18 0 25.5 -5.5t12.5 -14.5
l121 -193l121 193q5 9 12.5 14.5z" />
    <glyph glyph-name="uni043D" unicode="&#x43d;" horiz-adv-x="650" 
d="M584 512q8 -8 8 -19v-466q0 -11 -8 -19t-19 -8h-126q-11 0 -19 8t-8 19v153h-174v-153q0 -11 -8 -19t-19 -8h-126q-11 0 -19 7.5t-8 19.5v466q0 11 8 19t19 8h126q11 0 19 -8t8 -19v-158h174v158q0 11 8 19t19 8h126q11 0 19 -8z" />
    <glyph glyph-name="uni043E" unicode="&#x43e;" horiz-adv-x="616" 
d="M543 104.5q-34 -52.5 -95 -83.5t-140 -31t-140 31t-95 83.5t-37 116.5l-1 39l1 38q2 64 36 117t95.5 84t140.5 31t140.5 -31t95.5 -84t36 -117q1 -10 1 -38q0 -29 -1 -39q-3 -64 -37 -116.5zM372.5 166.5q24.5 21.5 27.5 59.5q2 20 2 34t-2 34q-3 38 -27.5 59.5
t-64.5 21.5t-64.5 -21.5t-27.5 -59.5q-1 -10 -1 -34t1 -34q3 -38 27.5 -59.5t64.5 -21.5t64.5 21.5z" />
    <glyph glyph-name="uni043F" unicode="&#x43f;" horiz-adv-x="650" 
d="M584 512q8 -8 8 -19v-466q0 -11 -8 -19t-19 -8h-126q-11 0 -19 8t-8 19v338h-174v-338q0 -11 -8 -19t-19 -8h-126q-11 0 -19 8t-8 19v466q0 11 8 19t19 8h480q11 0 19 -8z" />
    <glyph glyph-name="uni0440" unicode="&#x440;" horiz-adv-x="634" 
d="M238 -163q0 -11 -8 -19t-19 -8h-126q-11 0 -19 8t-8 19v656q0 11 8 19t19 8h121q11 0 19 -8t8 -19v-23q16 19 30.5 31t41 20.5t67.5 8.5q95 0 157.5 -58t66.5 -171q1 -10 1 -40q0 -31 -1 -41q-4 -113 -66 -171.5t-158 -58.5q-52 0 -84 18t-50 42v-213zM392.5 351
q-21.5 24 -65.5 24q-41 0 -62.5 -23t-26.5 -57q-2 -20 -2 -35t2 -35q4 -33 26 -56.5t63 -23.5q44 0 65.5 24t24.5 63q2 20 2 28t-2 28q-3 39 -24.5 63z" />
    <glyph glyph-name="uni0441" unicode="&#x441;" horiz-adv-x="602" 
d="M244.5 167q24.5 -22 63.5 -22q31 0 49 9t30 27q6 10 12.5 15t16.5 5h131q11 0 19 -7.5t8 -17.5q0 -29 -25 -72.5t-84.5 -78.5t-156.5 -35q-75 0 -135.5 28.5t-97 80.5t-38.5 121l-1 40l1 40q2 69 38.5 121t97 80.5t135.5 28.5q96 0 155 -34t84 -77t27 -73q1 -11 -7.5 -19
t-19.5 -8h-131q-10 0 -16.5 5t-12.5 15q-12 18 -30 27t-49 9q-39 0 -63.5 -22t-27.5 -58q-1 -10 -1 -35t1 -35q3 -36 27.5 -58z" />
    <glyph glyph-name="uni0442" unicode="&#x442;" horiz-adv-x="562" 
d="M539 512q8 -8 8 -19v-101q0 -11 -8 -19t-19 -8h-149v-338q0 -11 -8 -19t-19 -8h-126q-11 0 -19 8t-8 19v338h-149q-11 0 -19 8t-8 19v101q0 11 8 19t19 8h478q11 0 19 -8z" />
    <glyph glyph-name="uni0443" unicode="&#x443;" horiz-adv-x="626" 
d="M19 496q0 10 7 17t17 7h132q18 0 29 -24l110 -259l110 259q9 24 29 24h132q10 0 17 -7t7 -17q0 -5 -1 -8l-198 -463q-33 -74 -65 -120t-75 -70.5t-104 -24.5h-65q-11 0 -19 8t-8 19v101q0 11 8 19t19 8h43q31 0 48 12.5t30 42.5l-202 468q-1 3 -1 8z" />
    <glyph glyph-name="uni045E" unicode="&#x45e;" horiz-adv-x="626" 
d="M19 496q0 10 7 17t17 7h132q18 0 29 -24l110 -259l110 259q9 24 29 24h132q10 0 17 -7t7 -17q0 -5 -1 -8l-198 -463q-33 -74 -65 -120t-75 -70.5t-104 -24.5h-65q-11 0 -19 8t-8 19v101q0 11 8 19t19 8h43q31 0 48 12.5t30 42.5l-202 468q-1 3 -1 8zM174 749.5
q5 5.5 14 5.5h84q9 0 14 -5.5t5 -13.5q0 -20 11 -35t31 -15t31 15t11 35q0 8 5 13.5t14 5.5h84q9 0 14 -5.5t5 -13.5q0 -36 -16.5 -69t-53 -55t-94.5 -22t-94.5 22t-53 55t-16.5 69q0 8 5 13.5z" />
    <glyph glyph-name="uni0444" unicode="&#x444;" horiz-adv-x="911" 
d="M37 261l1 40q3 75 33 126.5t77 77t99 25.5q40 0 71.5 -18t47.5 -42v213q0 11 8 19t19 8h125q11 0 19 -8t8 -19v-213q16 24 47.5 42t71.5 18q52 0 99 -25.5t77 -77t33 -126.5q1 -10 1 -40q0 -31 -1 -41q-3 -75 -33 -127t-76.5 -77.5t-99.5 -25.5q-41 0 -71 16t-48 44v-213
q0 -11 -8 -19t-19 -8h-125q-11 0 -19 8t-8 19v213q-18 -28 -48 -44t-71 -16q-53 0 -99.5 25.5t-76.5 77.5t-33 127zM345 168q17 23 21 57q2 10 2 35t-2 35q-12 80 -72 80q-37 0 -55.5 -24t-21.5 -63q-1 -10 -1 -28q0 -50 17.5 -82.5t60.5 -32.5q34 0 51 23zM678 342.5
q-18 32.5 -61 32.5q-60 0 -72 -80q-2 -20 -2 -35t2 -35q4 -34 21 -57t51 -23q37 0 55.5 24t21.5 63q2 20 2 28q0 50 -18 82.5z" />
    <glyph glyph-name="uni0445" unicode="&#x445;" horiz-adv-x="616" 
d="M595 37q4 -6 4 -14q0 -9 -7 -16t-17 -7h-153q-11 0 -18 5.5t-14 13.5l-83 105l-82 -105q-7 -8 -14 -13.5t-18 -5.5h-153q-10 0 -17 7t-7 16q0 8 4 14l177 227l-172 219q-4 6 -4 14q0 9 7 16t17 7h155q11 0 18 -5.5t14 -13.5l77 -99l77 99q7 8 14 13.5t18 5.5h155
q10 0 17 -7t7 -16q0 -8 -4 -14l-173 -223z" />
    <glyph glyph-name="uni0447" unicode="&#x447;" horiz-adv-x="621" 
d="M226 317q17 -17 62 -17h95v193q0 11 8 19t19 8h126q11 0 19 -8t8 -19v-466q0 -11 -8 -19t-19 -8h-126q-11 0 -19 8t-8 19v118h-125q-112 0 -170.5 58.5t-58.5 170.5v119q0 11 8 19t19 8h126q11 0 19 -8t8 -19v-114q0 -45 17 -62z" />
    <glyph glyph-name="uni0446" unicode="&#x446;" horiz-adv-x="674" 
d="M382 493q0 11 8 19t19 8h126q11 0 19 -8t8 -19v-338h51q11 0 19 -8t8 -19v-211q0 -11 -8 -19t-19 -8h-101q-11 0 -19 8t-8 19v83h-400q-11 0 -19 8t-8 19v466q0 11 8 19t19 8h126q11 0 19 -8t8 -19v-338h144v338z" />
    <glyph glyph-name="uni0448" unicode="&#x448;" horiz-adv-x="824" 
d="M230 512q8 -8 8 -19v-338h84v338q0 11 8 19t19 8h126q11 0 19 -8t8 -19v-338h84v338q0 11 8 19t19 8h126q11 0 19 -8t8 -19v-466q0 -11 -8 -19t-19 -8h-654q-11 0 -19 8t-8 19v466q0 11 8 19t19 8h126q11 0 19 -8z" />
    <glyph glyph-name="uni0449" unicode="&#x449;" horiz-adv-x="876" 
d="M230 512q8 -8 8 -19v-338h84v338q0 11 8 19t19 8h126q11 0 19 -8t8 -19v-338h84v338q0 11 8 19t19 8h126q11 0 19 -8t8 -19v-338h51q11 0 19 -8t8 -19v-211q0 -11 -8 -19t-19 -8h-101q-11 0 -19 8t-8 19v83h-604q-11 0 -19 8t-8 19v466q0 11 8 19t19 8h126q11 0 19 -8z
" />
    <glyph glyph-name="uni045F" unicode="&#x45f;" horiz-adv-x="590" 
d="M373 -83q0 -11 -8 -19t-19 -8h-101q-11 0 -19 8t-8 19v83h-133q-11 0 -19 8t-8 19v466q0 11 8 19t19 8h126q11 0 19 -8t8 -19v-338h114v338q0 11 8 19t19 8h126q11 0 19 -8t8 -19v-466q0 -11 -8 -19t-19 -8h-132v-83z" />
    <glyph glyph-name="uni044C" unicode="&#x44c;" horiz-adv-x="590" 
d="M85 0q-11 0 -19 8t-8 19v466q0 11 8 19t19 8h126q11 0 19 -8t8 -19v-74h100q65 0 117.5 -26.5t82.5 -74t30 -109.5t-30 -109.5t-82.5 -73.5t-117.5 -26h-253zM320 155q32 0 50 13t18 41t-18 41.5t-50 13.5h-82v-109h82z" />
    <glyph glyph-name="uni044A" unicode="&#x44a;" horiz-adv-x="680" 
d="M175 0q-11 0 -19 8t-8 19v338h-104q-11 0 -19 8t-8 19v101q0 11 8 19t19 8h257q11 0 19 -8t8 -19v-74h100q65 0 117.5 -26.5t82.5 -74t30 -109.5t-30 -109.5t-82.5 -73.5t-117.5 -26h-253zM410 155q32 0 50 13t18 41t-18 41.5t-50 13.5h-82v-109h82z" />
    <glyph glyph-name="uni044B" unicode="&#x44b;" horiz-adv-x="846" 
d="M85 0q-11 0 -19 8t-8 19v466q0 11 8 19t19 8h126q11 0 19 -8t8 -19v-74h100q65 0 117.5 -26.5t82.5 -74t30 -109.5t-30 -109.5t-82.5 -73.5t-117.5 -26h-253zM761 520q11 0 19 -8t8 -19v-466q0 -11 -8 -19t-19 -8h-126q-11 0 -19 8t-8 19v466q0 11 8 19t19 8h126z
M320 155q32 0 50 13t18 41t-18 41.5t-50 13.5h-82v-109h82z" />
    <glyph glyph-name="uni0459" unicode="&#x459;" horiz-adv-x="951" 
d="M446 0q-11 0 -19 8t-8 19v338h-120v-163q0 -105 -62 -158.5t-176 -53.5h-16q-11 0 -19 8t-8 19v101q0 11 8 19t19 8q44 0 59 12t15 50v286q0 11 8 19t19 8h426q11 0 19 -8t8 -19v-74h100q65 0 117.5 -26.5t82.5 -74t30 -109.5t-30 -109.5t-82.5 -73.5t-117.5 -26h-253z
M681 155q32 0 50 13t18 41t-18 41.5t-50 13.5h-82v-109h82z" />
    <glyph glyph-name="uni045A" unicode="&#x45a;" horiz-adv-x="930" 
d="M425 0q-11 0 -19 8t-8 19v153h-160v-153q0 -11 -8 -19t-19 -8h-126q-11 0 -19 7.5t-8 19.5v466q0 11 8 19t19 8h126q11 0 19 -8t8 -19v-158h160v158q0 11 8 19t19 8h126q11 0 19 -8t8 -19v-74h100q65 0 117.5 -26.5t82.5 -74t30 -109.5t-30 -109.5t-82.5 -73.5
t-117.5 -26h-253zM660 155q32 0 50 13t18 41t-18 41.5t-50 13.5h-82v-109h82z" />
    <glyph glyph-name="uni0455" unicode="&#x455;" horiz-adv-x="562" 
d="M81 259.5q-41 42.5 -41 109.5q0 45 29.5 81.5t83 58t121.5 21.5q67 0 121.5 -20.5t86.5 -52.5t35 -67q1 -11 -7.5 -19t-19.5 -8h-119q-11 0 -26 11q-13 10 -28 15.5t-43 5.5q-24 0 -39 -7t-15 -21q0 -12 5.5 -18t20 -9t50.5 -8l62 -10q87 -14 130.5 -59.5t43.5 -108.5
q0 -45 -30.5 -82.5t-88 -59.5t-135.5 -22q-75 0 -130.5 21.5t-85 54.5t-32.5 67q-1 11 7.5 19t19.5 8h124q7 0 11.5 -2.5t10.5 -8.5q12 -11 27 -17.5t48 -6.5q31 0 52.5 8.5t21.5 22.5q0 16 -15.5 21.5t-66.5 13.5l-72 12q-76 14 -117 56.5z" />
    <glyph glyph-name="uni0454" unicode="&#x454;" horiz-adv-x="602" 
d="M338 206q-8 -8 -19 -8h-96q10 -25 32 -39t53 -14t49 9t30 27q6 10 12.5 15t16.5 5h131q11 0 19 -7.5t8 -17.5q0 -29 -25 -72.5t-84.5 -78.5t-156.5 -35q-75 0 -135.5 28.5t-97 80.5t-38.5 121l-1 40l1 40q2 69 38.5 121t97 80.5t135.5 28.5q96 0 155 -34t84 -77t27 -73
q1 -11 -7.5 -19t-19.5 -8h-131q-10 0 -16.5 5t-12.5 15q-12 18 -30 27t-49 9t-53 -14t-31 -38h95q11 0 19 -8t8 -19v-71q0 -11 -8 -19z" />
    <glyph glyph-name="uni044D" unicode="&#x44d;" horiz-adv-x="603" 
d="M379 323q-9 24 -31 38t-53 14t-49 -9t-30 -27q-6 -10 -12.5 -15t-16.5 -5h-131q-11 0 -19 7.5t-8 17.5q0 29 25 72.5t84.5 78.5t156.5 35q75 0 135.5 -28.5t97 -80.5t38.5 -121q1 -10 1 -40t-1 -40q-2 -69 -38.5 -121t-97 -80.5t-135.5 -28.5q-96 0 -155 34t-84 77
t-27 73q-1 11 7.5 19t19.5 8h131q10 0 16.5 -5t12.5 -15q12 -18 30 -27t49 -9t53 14t32 39h-96q-11 0 -19 8t-8 19v71q0 11 8 19t19 8h95z" />
    <glyph glyph-name="uni0456" unicode="&#x456;" horiz-adv-x="296" 
d="M230 583q-8 -8 -19 -8h-126q-11 0 -19 8t-8 19v101q0 11 8 19t19 8h126q11 0 19 -8t8 -19v-101q0 -11 -8 -19zM230 8q-8 -8 -19 -8h-126q-11 0 -19 8t-8 19v466q0 11 8 19t19 8h126q11 0 19 -8t8 -19v-466q0 -11 -8 -19z" />
    <glyph glyph-name="uni0457" unicode="&#x457;" horiz-adv-x="296" 
d="M230 8q-8 -8 -19 -8h-126q-11 0 -19 8t-8 19v466q0 11 8 19t19 8h126q11 0 19 -8t8 -19v-466q0 -11 -8 -19zM105 603q-8 -8 -19 -8h-101q-11 0 -19 8t-8 19v101q0 11 8 19t19 8h101q11 0 19 -8t8 -19v-101q0 -11 -8 -19zM330 603q-8 -8 -19 -8h-101q-11 0 -19 8t-8 19
v101q0 11 8 19t19 8h101q11 0 19 -8t8 -19v-101q0 -11 -8 -19z" />
    <glyph glyph-name="uni0458" unicode="&#x458;" horiz-adv-x="307" 
d="M241 583q-8 -8 -19 -8h-126q-11 0 -19 8t-8 19v101q0 11 8 19t19 8h126q11 0 19 -8t8 -19v-101q0 -11 -8 -19zM77 512q8 8 19 8h126q11 0 19 -8t8 -19v-485q0 -91 -59 -144.5t-154 -53.5h-50q-11 0 -19 8t-8 19v96q0 12 8 22t19 10h40q22 0 32.5 13.5t10.5 34.5v480
q0 11 8 19z" />
    <glyph glyph-name="uni045B" unicode="&#x45b;" horiz-adv-x="644" 
d="M583 8q-8 -8 -19 -8h-126q-11 0 -19 8t-8 19v253q0 44 -21.5 69.5t-65.5 25.5q-43 0 -64.5 -25t-21.5 -70v-253q0 -11 -8 -19t-19 -8h-126q-11 0 -19 8t-8 19v520h-53q-11 0 -19 8t-8 19v43q0 11 8 19t19 8h53v39q0 11 8 19t19 8h126q11 0 19 -8t8 -19v-39h53q11 0 19 -8
t8 -19v-43q0 -11 -8 -19t-19 -8h-53v-77q19 24 56 42t80 18q101 0 159 -57t58 -171v-275q0 -11 -8 -19z" />
    <glyph glyph-name="uni044E" unicode="&#x44e;" horiz-adv-x="928" 
d="M855 104.5q-34 -52.5 -95 -83.5t-140 -31q-106 0 -177 53t-90 137h-115v-153q0 -11 -8 -19t-19 -8h-126q-11 0 -19 7.5t-8 19.5v466q0 11 8 19t19 8h126q11 0 19 -8t8 -19v-158h114q11 55 46.5 99.5t92.5 70t129 25.5q79 0 140.5 -31t95.5 -84t36 -117q1 -10 1 -38
q0 -29 -1 -39q-3 -64 -37 -116.5zM684.5 166.5q24.5 21.5 27.5 59.5q2 20 2 34t-2 34q-3 38 -27.5 59.5t-64.5 21.5t-64.5 -21.5t-27.5 -59.5q-1 -10 -1 -34t1 -34q3 -38 27.5 -59.5t64.5 -21.5t64.5 21.5z" />
    <glyph glyph-name="uni044F" unicode="&#x44f;" horiz-adv-x="601" 
d="M516 520q11 0 19 -8t8 -19v-466q0 -11 -8 -19t-19 -8h-126q-11 0 -19 8t-8 19v100h-68l-69 -108q-4 -7 -12.5 -13t-19.5 -6h-144q-10 0 -17 7t-7 16q0 8 4 14l87 135q-71 54 -71 152q0 93 63 144.5t167 51.5h240zM277 365q-26 0 -38.5 -9.5t-12.5 -31.5q0 -42 51 -42h86
v83h-86z" />
    <glyph glyph-name="uni0452" unicode="&#x452;" horiz-adv-x="644" 
d="M389.5 349.5q-21.5 25.5 -65.5 25.5q-43 0 -64.5 -25t-21.5 -70v-253q0 -11 -8 -19t-19 -8h-126q-11 0 -19 8t-8 19v520h-53q-11 0 -19 8t-8 19v43q0 11 8 19t19 8h53v39q0 11 8 19t19 8h126q11 0 19 -8t8 -19v-39h53q11 0 19 -8t8 -19v-43q0 -11 -8 -19t-19 -8h-53v-77
q19 24 56 42t80 18q101 0 159 -57t58 -171v-329q0 -91 -59 -144.5t-154 -53.5h-50q-11 0 -19 8t-8 19v96q0 12 8 22t19 10h40q22 0 32.5 13.5t10.5 34.5v302q0 44 -21.5 69.5z" />
    <glyph glyph-name="uni05F2" unicode="&#x5f2;" horiz-adv-x="572" 
d="M348.5 244.5q-7.5 7.5 -7.5 17.5v284q0 11 7.5 18t17.5 7h125q11 0 18.5 -7t7.5 -18v-284q0 -11 -7.5 -18t-18.5 -7h-125q-10 0 -17.5 7.5zM62.5 244.5q-7.5 7.5 -7.5 17.5v284q0 11 7.5 18t17.5 7h125q11 0 18.5 -7t7.5 -18v-284q0 -11 -7.5 -18t-18.5 -7h-125
q-10 0 -17.5 7.5z" />
    <glyph glyph-name="uni05D0" unicode="&#x5d0;" horiz-adv-x="639" 
d="M593 21q0 -8 -6 -14.5t-15 -6.5h-123q-19 0 -27 9.5t-9 10.5l-175 252q-26 -23 -34 -54t-8 -66v-125q0 -12 -7 -19.5t-18 -7.5h-99q-10 0 -17.5 8t-7.5 19v124q0 85 23 138t87 100l-102 147q-5 6 -5 14t6.5 14.5t14.5 6.5h118q14 0 21.5 -6t14.5 -16l161 -228
q28 20 35.5 44t7.5 57v122q0 12 7.5 19.5t18.5 7.5h105q10 0 17.5 -8t7.5 -19v-126q0 -65 -25 -117t-92 -95l121 -171q4 -6 4 -14z" />
    <glyph glyph-name="uni05D1" unicode="&#x5d1;" horiz-adv-x="577" 
d="M47.5 7.5q-7.5 7.5 -7.5 17.5v86q0 11 7.5 18t17.5 7h251v185q0 113 -113 113h-128q-11 0 -18 7.5t-7 18.5v86q0 11 7.5 18t17.5 7h133q140 0 211.5 -59t71.5 -191v-185h35q11 0 18 -7t7 -18v-86q0 -10 -7 -17.5t-18 -7.5h-461q-10 0 -17.5 7.5z" />
    <glyph glyph-name="uni05D2" unicode="&#x5d2;" horiz-adv-x="486" 
d="M453.5 7.5q-7.5 -7.5 -19.5 -7.5h-125q-10 0 -17 7t-8 18l-15 73q-24 -29 -57 -48q-40 -24 -73 -37.5t-68 -20.5l-7 -1q-17 0 -17 16v108q0 17 21 25q7 3 46 14.5t62 23.5q37 18 67 54l-19 93q-13 61 -32 85.5t-62 24.5h-35q-10 0 -17.5 7.5t-7.5 17.5v92q0 11 7 18.5
t18 7.5h39q84 0 135.5 -25.5t81.5 -78.5t48 -144l61 -305q1 -10 -6.5 -17.5z" />
    <glyph glyph-name="uni05D3" unicode="&#x5d3;" horiz-adv-x="558" 
d="M519 564q7 -7 7 -18v-86q0 -10 -7 -17.5t-18 -7.5h-46q-12 -19 -18.5 -51t-6.5 -71v-291q0 -9 -9.5 -15.5t-19.5 -6.5h-117q-10 0 -16 6t-6 16v302q0 81 20 111h-228q-10 0 -17.5 7.5t-7.5 17.5v86q0 11 7.5 18t17.5 7h447q11 0 18 -7z" />
    <glyph glyph-name="uni05D4" unicode="&#x5d4;" horiz-adv-x="648" 
d="M432.5 7q-7.5 7 -7.5 18v296q0 114 -113 114h-228q-10 0 -17.5 7.5t-7.5 17.5v86q0 11 7.5 18t17.5 7h233q138 0 207.5 -61t69.5 -190v-295q0 -10 -7 -17.5t-18 -7.5h-118q-11 0 -18.5 7zM66.5 7.5q-7.5 7.5 -7.5 17.5v292q0 11 7.5 18t17.5 7h119q11 0 18 -7t7 -18v-292
q0 -10 -7 -17.5t-18 -7.5h-119q-10 0 -17.5 7.5z" />
    <glyph glyph-name="uni05D5" unicode="&#x5d5;" horiz-adv-x="294" 
d="M66.5 7.5q-7.5 7.5 -7.5 17.5v521q0 11 7.5 18t17.5 7h125q11 0 18.5 -7t7.5 -18v-521q0 -11 -7.5 -18t-18.5 -7h-125q-10 0 -17.5 7.5z" />
    <glyph glyph-name="uni05D6" unicode="&#x5d6;" horiz-adv-x="417" 
d="M374 564q7 -7 7 -18v-86q0 -10 -7 -17.5t-18 -7.5h-46q-12 -19 -18.5 -51t-6.5 -71v-291q0 -9 -9.5 -15.5t-19.5 -6.5h-117q-10 0 -16 6t-6 16v302q0 81 20 111h-75q-10 0 -17.5 7.5t-7.5 17.5v86q0 11 7.5 18t17.5 7h294q11 0 18 -7z" />
    <glyph glyph-name="uni05D7" unicode="&#x5d7;" horiz-adv-x="652" 
d="M66.5 7.5q-7.5 7.5 -7.5 17.5v521q0 11 7.5 18t17.5 7h237q141 0 209 -58.5t68 -192.5v-295q0 -10 -7 -17.5t-18 -7.5h-119q-11 0 -18 7t-7 18v296q0 114 -113 114h-88v-410q0 -10 -7 -17.5t-18 -7.5h-119q-10 0 -17.5 7.5z" />
    <glyph glyph-name="uni05D8" unicode="&#x5d8;" horiz-adv-x="651" 
d="M123.5 55q-69.5 65 -69.5 184v307q0 11 7.5 18t17.5 7h105q11 0 18 -7t7 -18v-302q0 -56 32.5 -83.5t90.5 -27.5q113 0 114 107v75q-1 57 -19.5 87.5t-52.5 30.5q-14 0 -29.5 -4t-25.5 -10q-6 -2 -9 -2q-9 0 -15.5 6.5t-6.5 16.5v79q0 26 19 37q16 9 38 14t59 5
q109 0 157 -57.5t49 -177.5v-73v-32q-11 -245 -277 -245q-140 0 -209.5 65z" />
    <glyph glyph-name="uni05D9" unicode="&#x5d9;" horiz-adv-x="286" 
d="M62.5 244.5q-7.5 7.5 -7.5 17.5v284q0 11 7.5 18t17.5 7h125q11 0 18.5 -7t7.5 -18v-284q0 -11 -7.5 -18t-18.5 -7h-125q-10 0 -17.5 7.5z" />
    <glyph glyph-name="uni05DA" unicode="&#x5da;" horiz-adv-x="553" 
d="M217 435h-159q-10 0 -17.5 7.5t-7.5 17.5v86q0 11 7.5 18t17.5 7h165q140 0 208 -56.5t68 -187.5v-426q0 -11 -7 -18t-18 -7h-118q-11 0 -18.5 7t-7.5 18v420q0 114 -113 114z" />
    <glyph glyph-name="uni05DB" unicode="&#x5db;" horiz-adv-x="546" 
d="M60.5 7.5q-7.5 7.5 -7.5 17.5v92q0 11 7 18.5t18 7.5h146q57 0 87 29t32 84q1 12 1 30q0 17 -1 29q-2 55 -32 84t-87 29h-146q-11 0 -18 7.5t-7 18.5v92q0 11 7.5 18t17.5 7h151q265 0 277 -257q1 -11 1 -28q0 -136 -65.5 -211t-212.5 -75h-151q-10 0 -17.5 7.5z" />
    <glyph glyph-name="uni05DC" unicode="&#x5dc;" horiz-adv-x="536" 
d="M440.5 508.5q56.5 -62.5 56.5 -188.5q0 -127 -75 -208t-188 -113l-40 -12q-10 -2 -18.5 6.5t-8.5 20.5v101q0 10 7 18.5t18 13.5l32 13q46 18 72.5 53.5t26.5 101.5q0 63 -22.5 88t-81.5 25h-23h-3l-134 1q-11 0 -18 7t-7 18v231q0 11 7.5 18t17.5 7h108q11 0 18 -7
t7 -18v-114h42h20q130 0 186.5 -62.5z" />
    <glyph glyph-name="uni05DD" unicode="&#x5dd;" horiz-adv-x="635" 
d="M66.5 7.5q-7.5 7.5 -7.5 17.5v521q0 11 7.5 18t17.5 7h227q137 0 203.5 -57.5t66.5 -187.5v-300q0 -11 -7.5 -18.5t-18.5 -7.5h-471q-10 0 -17.5 7.5zM420 136v185q0 114 -113 114h-96v-299h209z" />
    <glyph glyph-name="uni05DE" unicode="&#x5de;" horiz-adv-x="680" 
d="M563 510q64 -61 64 -183v-302q0 -10 -7 -17.5t-18 -7.5h-272q-11 0 -18.5 7t-7.5 18v86q0 11 7.5 18t18.5 7h128v183q0 52 -25 81t-65 29h-77l-86 -403q0 -11 -7.5 -18.5t-18.5 -7.5h-115q-11 0 -18.5 7.5t-5.5 18.5l99 402h-67q-11 0 -18 7.5t-7 18.5v92q0 11 7.5 18
t17.5 7h322q105 0 169 -61z" />
    <glyph glyph-name="uni05DF" unicode="&#x5df;" horiz-adv-x="288" 
d="M66.5 -117q-7.5 7 -7.5 18v645q0 11 7.5 18t17.5 7h119q11 0 18 -7t7 -18v-645q0 -11 -7 -18t-18 -7h-119q-10 0 -17.5 7z" />
    <glyph glyph-name="uni05E0" unicode="&#x5e0;" horiz-adv-x="444" 
d="M410 25q0 -11 -7.5 -18t-18.5 -7h-125h-197q-10 0 -17.5 7.5t-7.5 17.5v86q0 11 7.5 18t17.5 7h167l-9 197q-2 58 -19 84t-63 26h-51q-10 0 -17.5 7.5t-7.5 17.5v84q0 11 7 18.5t18 7.5h55q131 0 190 -59t64 -189z" />
    <glyph glyph-name="uni05E1" unicode="&#x5e1;" horiz-adv-x="650" 
d="M121 55.5q-68 65.5 -68 185.5v305q0 11 7.5 18t17.5 7h256q143 0 205.5 -61t68.5 -180q1 -10 1 -47q0 -38 -1 -48q-5 -120 -70.5 -182.5t-212.5 -62.5q-136 0 -204 65.5zM418.5 157.5q26.5 24.5 28.5 82.5q1 10 1 43q0 32 -1 42q-2 56 -30 83t-88 27h-121v-191
q0 -111 116 -111q68 0 94.5 24.5z" />
    <glyph glyph-name="uni05E2" unicode="&#x5e2;" horiz-adv-x="635" 
d="M574.5 564q7.5 -7 7.5 -18v-296q0 -99 -69 -164.5t-194 -87.5l-257 -54q-11 -2 -19 5t-8 18v87q0 10 6 17.5t17 9.5l111 27l-118 423q-5 17 -5 20q0 8 6 14t14 6h131q9 0 15 -4.5t8 -10.5l99 -409q54 21 74 56.5t20 96.5v246q0 11 7 18t18 7h118q11 0 18.5 -7z" />
    <glyph glyph-name="uni05E3" unicode="&#x5e3;" horiz-adv-x="583" 
d="M183 384q0 -53 25 -61l27 -9q17 -8 17 -31l1 -58q0 -11 -11.5 -18.5t-23.5 -5.5l-52 7q-52 8 -86 57.5t-34 130.5v150q0 11 7 18t18 7h197q129 0 193 -68t69 -189v-413q0 -11 -7 -18t-18 -7h-112q-11 0 -18.5 7t-7.5 18v414q-3 115 -115 115l-69 -1v-45z" />
    <glyph glyph-name="uni05E4" unicode="&#x5e4;" horiz-adv-x="586" 
d="M190 393q2 -21 7.5 -32.5t17.5 -15.5l27 -10q8 -3 12.5 -11.5t4.5 -18.5l1 -51q0 -16 -13 -24t-33 -6l-41 6q-52 8 -86 55.5t-34 119.5v141q2 11 8.5 18t16.5 7h202q132 0 196.5 -67.5t69.5 -189.5q1 -10 1 -28q0 -19 -1 -29q-5 -122 -69.5 -189.5t-196.5 -67.5h-190
q-10 0 -17.5 7.5t-7.5 17.5v92q0 11 7 18.5t18 7.5h185q51 0 83.5 29.5t35.5 83.5q1 10 1 30q0 19 -1 29q-2 54 -34.5 83.5t-84.5 29.5h-85v-35z" />
    <glyph glyph-name="uni05E5" unicode="&#x5e5;" horiz-adv-x="552" 
d="M268 -103l-248 639q-3 12 -3 14q0 8 6.5 14.5t15.5 6.5h121q22 0 31 -24l91 -235q40 12 62 43.5t22 82.5v106q0 12 7.5 19.5t18.5 7.5h105q10 0 17.5 -8t7.5 -19v-114q0 -98 -51.5 -164t-134.5 -97l100 -258q4 -9 4 -14q0 -9 -6.5 -15t-14.5 -6h-120q-21 0 -31 21z" />
    <glyph glyph-name="uni05E6" unicode="&#x5e6;" horiz-adv-x="590" 
d="M512 336q-30 -55 -88 -91l77 -106q14 -16 14 -33v-81q0 -10 -7 -17.5t-18 -7.5h-406q-10 0 -17.5 7.5t-7.5 17.5v89q0 11 7.5 18t17.5 7h234l-290 396q-6 10 -6 16q0 9 6.5 14.5t15.5 5.5h124q20 0 32 -18l140 -193q47 41 47 128v56q0 12 7 19.5t18 7.5h105q10 0 17.5 -8
t7.5 -19v-86q0 -67 -30 -122z" />
    <glyph glyph-name="uni05E7" unicode="&#x5e7;" horiz-adv-x="667" 
d="M307.5 -6q-8.5 9 -8.5 20v101q0 10 7 18.5t18 13.5l32 13q46 18 72.5 53.5t26.5 101.5q0 63 -22 88t-82 25h-267q-10 0 -17.5 7.5t-7.5 18.5v93q0 10 7.5 17t17.5 7h302q130 0 187 -62.5t57 -188.5q0 -127 -75 -208t-188 -113l-41 -12q-10 -2 -18.5 7zM66.5 -184
q-7.5 7 -7.5 18v483q0 11 7.5 18t17.5 7h115q11 0 18 -7t7 -18v-483q0 -11 -7 -18t-18 -7h-115q-10 0 -17.5 7z" />
    <glyph glyph-name="uni05E8" unicode="&#x5e8;" horiz-adv-x="553" 
d="M337.5 7q-7.5 7 -7.5 18v296q0 114 -113 114h-152q-10 0 -17.5 7.5t-7.5 17.5v86q0 11 7.5 18t17.5 7h158q139 0 207.5 -57t68.5 -187v-302q0 -10 -7 -17.5t-18 -7.5h-118q-11 0 -18.5 7z" />
    <glyph glyph-name="uni05E9" unicode="&#x5e9;" horiz-adv-x="767" 
d="M710 564q7 -7 7 -18v-262q0 -88 -40 -154.5t-109 -102.5t-154 -35h-95q-80 0 -140 31t-91.5 84t-31.5 117v322q0 11 7.5 18t17.5 7h105q11 0 18.5 -7t7.5 -18l1 -240q54 5 76 41.5t22 104.5v92q0 12 7 19.5t18 7.5h105q10 0 17.5 -8t7.5 -19v-94q0 -114 -59 -180
t-167 -77q19 -32 49.5 -49t69.5 -17h24q51 0 91.5 21t63.5 58t23 83v257q0 11 7.5 18t18.5 7h105q11 0 18 -7z" />
    <glyph glyph-name="uni05EA" unicode="&#x5ea;" horiz-adv-x="714" 
d="M590.5 511.5q69.5 -59.5 69.5 -185.5v-301q0 -10 -7 -17.5t-18 -7.5h-119q-11 0 -18 7t-7 18v296q0 114 -113 114h-65q-9 -34 -12.5 -68t-3.5 -79l8 -263q0 -10 -7 -17.5t-18 -7.5l-213 1q-10 0 -17.5 7.5t-7.5 17.5v79q0 11 7.5 18t17.5 7h81v157q0 84 16 148h-60
q-10 0 -17.5 7.5t-7.5 17.5v86q0 11 7.5 18t17.5 7h280q137 0 206.5 -59.5z" />
    <glyph glyph-name="uniFB2A" unicode="&#xfb2a;" horiz-adv-x="767" 
d="M710 564q7 -7 7 -18v-262q0 -88 -40 -154.5t-109 -102.5t-154 -35h-95q-80 0 -140 31t-91.5 84t-31.5 117v322q0 11 7.5 18t17.5 7h105q11 0 18.5 -7t7.5 -18l1 -240q54 5 76 41.5t22 104.5v92q0 12 7 19.5t18 7.5h105q10 0 17.5 -8t7.5 -19v-94q0 -114 -59 -180
t-167 -77q19 -32 49.5 -49t69.5 -17h24q51 0 91.5 21t63.5 58t23 83v257q0 11 7.5 18t18.5 7h105q11 0 18 -7zM566 617q-6 6 -6 16v50q0 10 6 16t16 6h50q10 0 16 -6t6 -16v-50q0 -10 -6 -16t-16 -6h-50q-10 0 -16 6z" />
    <glyph glyph-name="uniFB2B" unicode="&#xfb2b;" horiz-adv-x="767" 
d="M710 564q7 -7 7 -18v-262q0 -88 -40 -154.5t-109 -102.5t-154 -35h-95q-80 0 -140 31t-91.5 84t-31.5 117v322q0 11 7.5 18t17.5 7h105q11 0 18.5 -7t7.5 -18l1 -240q54 5 76 41.5t22 104.5v92q0 12 7 19.5t18 7.5h105q10 0 17.5 -8t7.5 -19v-94q0 -114 -59 -180
t-167 -77q19 -32 49.5 -49t69.5 -17h24q51 0 91.5 21t63.5 58t23 83v257q0 11 7.5 18t18.5 7h105q11 0 18 -7zM115 617q-6 6 -6 16v50q0 10 6 16t16 6h50q10 0 16 -6t6 -16v-50q0 -10 -6 -16t-16 -6h-50q-10 0 -16 6z" />
    <glyph glyph-name="uniFB2C" unicode="&#xfb2c;" horiz-adv-x="767" 
d="M710 564q7 -7 7 -18v-262q0 -88 -40 -154.5t-109 -102.5t-154 -35h-95q-80 0 -140 31t-91.5 84t-31.5 117v322q0 11 7.5 18t17.5 7h105q11 0 18.5 -7t7.5 -18l1 -240q54 5 76 41.5t22 104.5v92q0 12 7 19.5t18 7.5h105q10 0 17.5 -8t7.5 -19v-94q0 -114 -59 -180
t-167 -77q19 -32 49.5 -49t69.5 -17h24q51 0 91.5 21t63.5 58t23 83v257q0 11 7.5 18t18.5 7h105q11 0 18 -7zM454 251q-6 6 -6 16v49q0 10 6 16t16 6h49q10 0 16 -6t6 -16v-49q0 -10 -6 -16t-16 -6h-49q-10 0 -16 6zM566 617q-6 6 -6 16v50q0 10 6 16t16 6h50q10 0 16 -6
t6 -16v-50q0 -10 -6 -16t-16 -6h-50q-10 0 -16 6z" />
    <glyph glyph-name="uniFB2D" unicode="&#xfb2d;" horiz-adv-x="767" 
d="M710 564q7 -7 7 -18v-262q0 -88 -40 -154.5t-109 -102.5t-154 -35h-95q-80 0 -140 31t-91.5 84t-31.5 117v322q0 11 7.5 18t17.5 7h105q11 0 18.5 -7t7.5 -18l1 -240q54 5 76 41.5t22 104.5v92q0 12 7 19.5t18 7.5h105q10 0 17.5 -8t7.5 -19v-94q0 -114 -59 -180
t-167 -77q19 -32 49.5 -49t69.5 -17h24q51 0 91.5 21t63.5 58t23 83v257q0 11 7.5 18t18.5 7h105q11 0 18 -7zM454 251q-6 6 -6 16v49q0 10 6 16t16 6h49q10 0 16 -6t6 -16v-49q0 -10 -6 -16t-16 -6h-49q-10 0 -16 6zM115 617q-6 6 -6 16v50q0 10 6 16t16 6h50q10 0 16 -6
t6 -16v-50q0 -10 -6 -16t-16 -6h-50q-10 0 -16 6z" />
    <glyph glyph-name="uniFB2E" unicode="&#xfb2e;" horiz-adv-x="639" 
d="M593 21q0 -8 -6 -14.5t-15 -6.5h-123q-19 0 -27 9.5t-9 10.5l-175 252q-26 -23 -34 -54t-8 -66v-125q0 -12 -7 -19.5t-18 -7.5h-99q-10 0 -17.5 8t-7.5 19v124q0 85 23 138t87 100l-102 147q-5 6 -5 14t6.5 14.5t14.5 6.5h118q14 0 21.5 -6t14.5 -16l161 -228
q28 20 35.5 44t7.5 57v122q0 12 7.5 19.5t18.5 7.5h105q10 0 17.5 -8t7.5 -19v-126q0 -65 -25 -117t-92 -95l121 -171q4 -6 4 -14zM188 -157q-6 6 -6 16v45q0 10 6 16t16 6h208q10 0 16 -6t6 -16v-45q0 -10 -6 -16t-16 -6h-208q-10 0 -16 6z" />
    <glyph glyph-name="uniFB2F" unicode="&#xfb2f;" horiz-adv-x="639" 
d="M593 21q0 -8 -6 -14.5t-15 -6.5h-123q-19 0 -27 9.5t-9 10.5l-175 252q-26 -23 -34 -54t-8 -66v-125q0 -12 -7 -19.5t-18 -7.5h-99q-10 0 -17.5 8t-7.5 19v124q0 85 23 138t87 100l-102 147q-5 6 -5 14t6.5 14.5t14.5 6.5h118q14 0 21.5 -6t14.5 -16l161 -228
q28 20 35.5 44t7.5 57v122q0 12 7.5 19.5t18.5 7.5h105q10 0 17.5 -8t7.5 -19v-126q0 -65 -25 -117t-92 -95l121 -171q4 -6 4 -14zM428 -82q6 -6 6 -16v-45q0 -10 -6 -16t-16 -6h-67v-69q0 -10 -6 -16t-16 -6h-34q-10 0 -16 6t-6 16v69h-63q-10 0 -16 6t-6 16v45q0 10 6 16
t16 6h208q10 0 16 -6z" />
    <glyph glyph-name="uniFB30" unicode="&#xfb30;" horiz-adv-x="639" 
d="M593 21q0 -8 -6 -14.5t-15 -6.5h-123q-19 0 -27 9.5t-9 10.5l-175 252q-26 -23 -34 -54t-8 -66v-125q0 -12 -7 -19.5t-18 -7.5h-99q-10 0 -17.5 8t-7.5 19v124q0 85 23 138t87 100l-102 147q-5 6 -5 14t6.5 14.5t14.5 6.5h118q14 0 21.5 -6t14.5 -16l161 -228
q28 20 35.5 44t7.5 57v122q0 12 7.5 19.5t18.5 7.5h105q10 0 17.5 -8t7.5 -19v-126q0 -65 -25 -117t-92 -95l121 -171q4 -6 4 -14zM315 135q6 -6 6 -16v-49q0 -10 -6 -16t-16 -6h-49q-10 0 -16 6t-6 16v49q0 10 6 16t16 6h49q10 0 16 -6z" />
    <glyph glyph-name="uniFB31" unicode="&#xfb31;" horiz-adv-x="577" 
d="M47.5 7.5q-7.5 7.5 -7.5 17.5v86q0 11 7.5 18t17.5 7h251v185q0 113 -113 113h-128q-11 0 -18 7.5t-7 18.5v86q0 11 7.5 18t17.5 7h133q140 0 211.5 -59t71.5 -191v-185h35q11 0 18 -7t7 -18v-86q0 -10 -7 -17.5t-18 -7.5h-461q-10 0 -17.5 7.5zM143 251q-6 6 -6 16v49
q0 10 6 16t16 6h49q10 0 16 -6t6 -16v-49q0 -10 -6 -16t-16 -6h-49q-10 0 -16 6z" />
    <glyph glyph-name="uniFB32" unicode="&#xfb32;" horiz-adv-x="486" 
d="M453.5 7.5q-7.5 -7.5 -19.5 -7.5h-125q-10 0 -17 7t-8 18l-15 73q-24 -29 -57 -48q-40 -24 -73 -37.5t-68 -20.5l-7 -1q-17 0 -17 16v108q0 17 21 25q7 3 46 14.5t62 23.5q37 18 67 54l-19 93q-13 61 -32 85.5t-62 24.5h-35q-10 0 -17.5 7.5t-7.5 17.5v92q0 11 7 18.5
t18 7.5h39q84 0 135.5 -25.5t81.5 -78.5t48 -144l61 -305q1 -10 -6.5 -17.5zM98 251q-6 6 -6 16v49q0 10 6 16t16 6h49q10 0 16 -6t6 -16v-49q0 -10 -6 -16t-16 -6h-49q-10 0 -16 6z" />
    <glyph glyph-name="uniFB33" unicode="&#xfb33;" horiz-adv-x="558" 
d="M519 564q7 -7 7 -18v-86q0 -10 -7 -17.5t-18 -7.5h-46q-12 -19 -18.5 -51t-6.5 -71v-291q0 -9 -9.5 -15.5t-19.5 -6.5h-117q-10 0 -16 6t-6 16v302q0 81 20 111h-228q-10 0 -17.5 7.5t-7.5 17.5v86q0 11 7.5 18t17.5 7h447q11 0 18 -7zM114 251q-6 6 -6 16v49q0 10 6 16
t16 6h49q10 0 16 -6t6 -16v-49q0 -10 -6 -16t-16 -6h-49q-10 0 -16 6z" />
    <glyph glyph-name="uniFB34" unicode="&#xfb34;" horiz-adv-x="648" 
d="M432.5 7q-7.5 7 -7.5 18v296q0 114 -113 114h-228q-10 0 -17.5 7.5t-7.5 17.5v86q0 11 7.5 18t17.5 7h233q138 0 207.5 -61t69.5 -190v-295q0 -10 -7 -17.5t-18 -7.5h-118q-11 0 -18.5 7zM66.5 7.5q-7.5 7.5 -7.5 17.5v292q0 11 7.5 18t17.5 7h119q11 0 18 -7t7 -18v-292
q0 -10 -7 -17.5t-18 -7.5h-119q-10 0 -17.5 7.5zM284 251q-6 6 -6 16v49q0 10 6 16t16 6h49q10 0 16 -6t6 -16v-49q0 -10 -6 -16t-16 -6h-49q-10 0 -16 6z" />
    <glyph glyph-name="uniFB35" unicode="&#xfb35;" horiz-adv-x="354" 
d="M125.5 7.5q-7.5 7.5 -7.5 17.5v521q0 11 7.5 18t17.5 7h125q11 0 18.5 -7t7.5 -18v-521q0 -11 -7.5 -18t-18.5 -7h-125q-10 0 -17.5 7.5zM-1 251q-6 6 -6 16v49q0 10 6 16t16 6h49q10 0 16 -6t6 -16v-49q0 -10 -6 -16t-16 -6h-49q-10 0 -16 6z" />
    <glyph glyph-name="uniFB36" unicode="&#xfb36;" horiz-adv-x="417" 
d="M374 564q7 -7 7 -18v-86q0 -10 -7 -17.5t-18 -7.5h-46q-12 -19 -18.5 -51t-6.5 -71v-291q0 -9 -9.5 -15.5t-19.5 -6.5h-117q-10 0 -16 6t-6 16v302q0 81 20 111h-75q-10 0 -17.5 7.5t-7.5 17.5v86q0 11 7.5 18t17.5 7h294q11 0 18 -7zM4 251q-6 6 -6 16v49q0 10 6 16
t16 6h49q10 0 16 -6t6 -16v-49q0 -10 -6 -16t-16 -6h-49q-10 0 -16 6z" />
    <glyph glyph-name="uniFB38" unicode="&#xfb38;" horiz-adv-x="651" 
d="M123.5 55q-69.5 65 -69.5 184v307q0 11 7.5 18t17.5 7h105q11 0 18 -7t7 -18v-302q0 -56 32.5 -83.5t90.5 -27.5q113 0 114 107v75q-1 57 -19.5 87.5t-52.5 30.5q-14 0 -29.5 -4t-25.5 -10q-6 -2 -9 -2q-9 0 -15.5 6.5t-6.5 16.5v79q0 26 19 37q16 9 38 14t59 5
q109 0 157 -57.5t49 -177.5v-73v-32q-11 -245 -277 -245q-140 0 -209.5 65zM286 251q-6 6 -6 16v49q0 10 6 16t16 6h49q10 0 16 -6t6 -16v-49q0 -10 -6 -16t-16 -6h-49q-10 0 -16 6z" />
    <glyph glyph-name="uniFB39" unicode="&#xfb39;" horiz-adv-x="361" 
d="M137.5 244.5q-7.5 7.5 -7.5 17.5v284q0 11 7.5 18t17.5 7h125q11 0 18.5 -7t7.5 -18v-284q0 -11 -7.5 -18t-18.5 -7h-125q-10 0 -17.5 7.5zM14 251q-6 6 -6 16v49q0 10 6 16t16 6h49q10 0 16 -6t6 -16v-49q0 -10 -6 -16t-16 -6h-49q-10 0 -16 6z" />
    <glyph glyph-name="uniFB3A" unicode="&#xfb3a;" horiz-adv-x="553" 
d="M217 435h-159q-10 0 -17.5 7.5t-7.5 17.5v86q0 11 7.5 18t17.5 7h165q140 0 208 -56.5t68 -187.5v-426q0 -11 -7 -18t-18 -7h-118q-11 0 -18.5 7t-7.5 18v420q0 114 -113 114zM183 249q-6 6 -6 16v49q0 10 6 16t16 6h49q10 0 16 -6t6 -16v-49q0 -10 -6 -16t-16 -6h-49
q-10 0 -16 6z" />
    <glyph glyph-name="uniFB3B" unicode="&#xfb3b;" horiz-adv-x="546" 
d="M60.5 7.5q-7.5 7.5 -7.5 17.5v92q0 11 7 18.5t18 7.5h146q57 0 87 29t32 84q1 12 1 30q0 17 -1 29q-2 55 -32 84t-87 29h-146q-11 0 -18 7.5t-7 18.5v92q0 11 7.5 18t17.5 7h151q265 0 277 -257q1 -11 1 -28q0 -136 -65.5 -211t-212.5 -75h-151q-10 0 -17.5 7.5zM161 251
q-6 6 -6 16v49q0 10 6 16t16 6h49q10 0 16 -6t6 -16v-49q0 -10 -6 -16t-16 -6h-49q-10 0 -16 6z" />
    <glyph glyph-name="uniFB3C" unicode="&#xfb3c;" horiz-adv-x="536" 
d="M440.5 508.5q56.5 -62.5 56.5 -188.5q0 -127 -75 -208t-188 -113l-40 -12q-10 -2 -18.5 6.5t-8.5 20.5v101q0 10 7 18.5t18 13.5l32 13q46 18 72.5 53.5t26.5 101.5q0 63 -22.5 88t-81.5 25h-23h-3l-134 1q-11 0 -18 7t-7 18v231q0 11 7.5 18t17.5 7h108q11 0 18 -7
t7 -18v-114h42h20q130 0 186.5 -62.5zM217 251q-6 -6 -16 -6h-49q-10 0 -16 6t-6 16v49q0 10 6 16t16 6h49q10 0 16 -6t6 -16v-49q0 -10 -6 -16z" />
    <glyph glyph-name="uniFB3E" unicode="&#xfb3e;" horiz-adv-x="680" 
d="M563 510q64 -61 64 -183v-302q0 -10 -7 -17.5t-18 -7.5h-272q-11 0 -18.5 7t-7.5 18v86q0 11 7.5 18t18.5 7h128v183q0 52 -25 81t-65 29h-77l-86 -403q0 -11 -7.5 -18.5t-18.5 -7.5h-115q-11 0 -18.5 7.5t-5.5 18.5l99 402h-67q-11 0 -18 7.5t-7 18.5v92q0 11 7.5 18
t17.5 7h322q105 0 169 -61zM315 231q-6 6 -6 16v49q0 10 6 16t16 6h49q10 0 16 -6t6 -16v-49q0 -10 -6 -16t-16 -6h-49q-10 0 -16 6z" />
    <glyph glyph-name="uniFB40" unicode="&#xfb40;" horiz-adv-x="444" 
d="M410 25q0 -11 -7.5 -18t-18.5 -7h-125h-197q-10 0 -17.5 7.5t-7.5 17.5v86q0 11 7.5 18t17.5 7h167l-9 197q-2 58 -19 84t-63 26h-51q-10 0 -17.5 7.5t-7.5 17.5v84q0 11 7 18.5t18 7.5h55q131 0 190 -59t64 -189zM93 251q-6 6 -6 16v49q0 10 6 16t16 6h49q10 0 16 -6
t6 -16v-49q0 -10 -6 -16t-16 -6h-49q-10 0 -16 6z" />
    <glyph glyph-name="uniFB41" unicode="&#xfb41;" horiz-adv-x="650" 
d="M121 55.5q-68 65.5 -68 185.5v305q0 11 7.5 18t17.5 7h256q143 0 205.5 -61t68.5 -180q1 -10 1 -47q0 -38 -1 -48q-5 -120 -70.5 -182.5t-212.5 -62.5q-136 0 -204 65.5zM418.5 157.5q26.5 24.5 28.5 82.5q1 10 1 43q0 32 -1 42q-2 56 -30 83t-88 27h-121v-191
q0 -111 116 -111q68 0 94.5 24.5zM281 251q-6 6 -6 16v49q0 10 6 16t16 6h49q10 0 16 -6t6 -16v-49q0 -10 -6 -16t-16 -6h-49q-10 0 -16 6z" />
    <glyph glyph-name="uniFB43" unicode="&#xfb43;" horiz-adv-x="590" 
d="M183 384q0 -53 25 -61l27 -9q17 -8 17 -31l1 -58q0 -11 -11.5 -18.5t-23.5 -5.5l-52 7q-52 8 -86 57.5t-34 130.5v150q0 11 7 18t18 7h197q129 0 193 -68t69 -189v-413q0 -11 -7 -18t-18 -7h-112q-11 0 -18.5 7t-7.5 18v414q-3 115 -115 115l-69 -1v-45zM264 236
q-6 6 -6 16v49q0 10 6 16t16 6h49q10 0 16 -6t6 -16v-49q0 -10 -6 -16t-16 -6h-49q-10 0 -16 6z" />
    <glyph glyph-name="uniFB44" unicode="&#xfb44;" horiz-adv-x="586" 
d="M190 393q2 -21 7.5 -32.5t17.5 -15.5l27 -10q8 -3 12.5 -11.5t4.5 -18.5l1 -51q0 -16 -13 -24t-33 -6l-41 6q-52 8 -86 55.5t-34 119.5v141q2 11 8.5 18t16.5 7h202q132 0 196.5 -67.5t69.5 -189.5q1 -10 1 -28q0 -19 -1 -29q-5 -122 -69.5 -189.5t-196.5 -67.5h-190
q-10 0 -17.5 7.5t-7.5 17.5v92q0 11 7 18.5t18 7.5h185q51 0 83.5 29.5t35.5 83.5q1 10 1 30q0 19 -1 29q-2 54 -34.5 83.5t-84.5 29.5h-85v-35zM281 238q-6 6 -6 16v49q0 10 6 16t16 6h49q10 0 16 -6t6 -16v-49q0 -10 -6 -16t-16 -6h-49q-10 0 -16 6z" />
    <glyph glyph-name="uniFB46" unicode="&#xfb46;" horiz-adv-x="590" 
d="M512 336q-30 -55 -88 -91l77 -106q14 -16 14 -33v-81q0 -10 -7 -17.5t-18 -7.5h-406q-10 0 -17.5 7.5t-7.5 17.5v89q0 11 7.5 18t17.5 7h234l-290 396q-6 10 -6 16q0 9 6.5 14.5t15.5 5.5h124q20 0 32 -18l140 -193q47 41 47 128v56q0 12 7 19.5t18 7.5h105q10 0 17.5 -8
t7.5 -19v-86q0 -67 -30 -122zM89 216q-6 6 -6 16v49q0 10 6 16t16 6h49q10 0 16 -6t6 -16v-49q0 -10 -6 -16t-16 -6h-49q-10 0 -16 6z" />
    <glyph glyph-name="uniFB47" unicode="&#xfb47;" horiz-adv-x="667" 
d="M307.5 -6q-8.5 9 -8.5 20v101q0 10 7 18.5t18 13.5l32 13q46 18 72.5 53.5t26.5 101.5q0 63 -22 88t-82 25h-267q-10 0 -17.5 7.5t-7.5 18.5v93q0 10 7.5 17t17.5 7h302q130 0 187 -62.5t57 -188.5q0 -127 -75 -208t-188 -113l-41 -12q-10 -2 -18.5 7zM66.5 -184
q-7.5 7 -7.5 18v483q0 11 7.5 18t17.5 7h115q11 0 18 -7t7 -18v-483q0 -11 -7 -18t-18 -7h-115q-10 0 -17.5 7zM284 251q-6 6 -6 16v49q0 10 6 16t16 6h49q10 0 16 -6t6 -16v-49q0 -10 -6 -16t-16 -6h-49q-10 0 -16 6z" />
    <glyph glyph-name="uniFB48" unicode="&#xfb48;" horiz-adv-x="553" 
d="M337.5 7q-7.5 7 -7.5 18v296q0 114 -113 114h-152q-10 0 -17.5 7.5t-7.5 17.5v86q0 11 7.5 18t17.5 7h158q139 0 207.5 -57t68.5 -187v-302q0 -10 -7 -17.5t-18 -7.5h-118q-11 0 -18.5 7zM163 251q-6 6 -6 16v49q0 10 6 16t16 6h49q10 0 16 -6t6 -16v-49q0 -10 -6 -16
t-16 -6h-49q-10 0 -16 6z" />
    <glyph glyph-name="uniFB49" unicode="&#xfb49;" horiz-adv-x="767" 
d="M710 564q7 -7 7 -18v-262q0 -88 -40 -154.5t-109 -102.5t-154 -35h-95q-80 0 -140 31t-91.5 84t-31.5 117v322q0 11 7.5 18t17.5 7h105q11 0 18.5 -7t7.5 -18l1 -240q54 5 76 41.5t22 104.5v92q0 12 7 19.5t18 7.5h105q10 0 17.5 -8t7.5 -19v-94q0 -114 -59 -180
t-167 -77q19 -32 49.5 -49t69.5 -17h24q51 0 91.5 21t63.5 58t23 83v257q0 11 7.5 18t18.5 7h105q11 0 18 -7zM454 251q-6 6 -6 16v49q0 10 6 16t16 6h49q10 0 16 -6t6 -16v-49q0 -10 -6 -16t-16 -6h-49q-10 0 -16 6z" />
    <glyph glyph-name="uniFB4A" unicode="&#xfb4a;" horiz-adv-x="714" 
d="M590.5 511.5q69.5 -59.5 69.5 -185.5v-301q0 -10 -7 -17.5t-18 -7.5h-119q-11 0 -18 7t-7 18v296q0 114 -113 114h-65q-9 -34 -12.5 -68t-3.5 -79l8 -263q0 -10 -7 -17.5t-18 -7.5l-213 1q-10 0 -17.5 7.5t-7.5 17.5v79q0 11 7.5 18t17.5 7h81v157q0 84 16 148h-60
q-10 0 -17.5 7.5t-7.5 17.5v86q0 11 7.5 18t17.5 7h280q137 0 206.5 -59.5zM355 251q-6 6 -6 16v49q0 10 6 16t16 6h49q10 0 16 -6t6 -16v-49q0 -10 -6 -16t-16 -6h-49q-10 0 -16 6z" />
    <glyph glyph-name="uniFB4B" unicode="&#xfb4b;" horiz-adv-x="294" 
d="M66.5 7.5q-7.5 7.5 -7.5 17.5v521q0 11 7.5 18t17.5 7h125q11 0 18.5 -7t7.5 -18v-521q0 -11 -7.5 -18t-18.5 -7h-125q-10 0 -17.5 7.5zM100 644q-6 6 -6 16v50q0 10 6 16t16 6h56q10 0 16 -6t6 -16v-50q0 -10 -6 -16t-16 -6h-56q-10 0 -16 6z" />
    <glyph glyph-name="zero" unicode="0" horiz-adv-x="688" 
d="M638 349q0 -61 -2 -88q-7 -119 -78.5 -195t-213.5 -76t-213.5 76t-78.5 195q-2 54 -2 88t2 90q7 119 78.5 195t213.5 76t213.5 -76t78.5 -195q2 -28 2 -90zM424 519.5q-24 30.5 -80 30.5t-80 -30.5t-27 -85.5q-2 -54 -2 -83q0 -27 2 -85q2 -55 26.5 -85.5t80.5 -30.5
t80.5 30.5t26.5 85.5q2 29 2 85t-2 83q-3 55 -27 85.5z" />
    <glyph glyph-name="one" unicode="1" horiz-adv-x="503" 
d="M16 491q0 14 11 22l215 165q2 2 10.5 8t17.5 10t18 4h122q11 0 19 -8t8 -19v-646q0 -11 -8 -19t-19 -8h-131q-11 0 -19 8t-8 19v437l-119 -90q-8 -6 -17 -6q-13 0 -21 11l-74 96q-5 6 -5 16z" />
    <glyph glyph-name="two" unicode="2" horiz-adv-x="666" 
d="M344 160h251q11 0 19 -8t8 -19v-106q0 -11 -8 -19t-19 -8h-528q-11 0 -19 8t-8 19v86q0 38 29 59l299 214q32 24 42.5 44.5t10.5 44.5q0 25 -17.5 50t-66.5 25q-34 0 -53.5 -13.5t-25 -25t-14.5 -35.5q-5 -13 -15 -18t-25 -5h-123q-9 0 -15.5 6.5t-6.5 15.5
q2 59 33 112.5t93 88t151 34.5q85 0 146 -32.5t92.5 -86t31.5 -116.5q0 -61 -27.5 -110.5t-94.5 -98.5z" />
    <glyph glyph-name="three" unicode="3" horiz-adv-x="676" 
d="M589 692q8 -8 8 -19v-106q0 -15 -20 -35l-121 -122q82 -20 129 -69t47 -124q0 -111 -77.5 -169t-218.5 -58q-91 0 -159 28t-104 73.5t-38 96.5q0 9 6.5 15.5t15.5 6.5h126q16 0 26 -5.5t23 -17.5q20 -18 41.5 -27.5t62.5 -9.5q50 0 80.5 17t30.5 50t-30.5 50t-80.5 17
h-83q-11 0 -19 8t-8 19v86q0 10 5.5 18t15.5 18l106 107h-261q-11 0 -19 8t-8 19v106q0 11 8 19t19 8h478q11 0 19 -8z" />
    <glyph glyph-name="four" unicode="4" horiz-adv-x="703" 
d="M381 8q-8 8 -8 19v102h-315q-11 0 -19 8t-8 19v106q0 26 13 43l299 377q9 11 16.5 14.5t20.5 3.5h151q11 0 19 -8t8 -19v-384h86q11 0 19 -8t8 -19v-106q0 -11 -8 -19t-19 -8h-86v-102q0 -11 -8 -19t-19 -8h-131q-11 0 -19 8zM378 473l-146 -184h146v184z" />
    <glyph glyph-name="five" unicode="5" horiz-adv-x="654" 
d="M400.5 173q30.5 23 30.5 64q0 34 -27 55.5t-72 21.5q-15 0 -27.5 -4t-30.5 -12q-18 -9 -26 -9h-156q-12 0 -20 8t-7 19l30 357q1 11 8.5 19t18.5 8h428q11 0 19 -8t8 -19v-106q0 -11 -8 -19t-19 -8h-291l-7 -89q42 23 93 23q78 0 139.5 -28t96.5 -81.5t35 -127.5
q0 -78 -38 -133.5t-104 -84.5t-149 -29q-88 0 -153 29.5t-100 78t-37 104.5q0 9 6.5 15.5t15.5 6.5h127q23 0 36 -16q21 -27 42.5 -42.5t62.5 -15.5q45 0 75.5 23z" />
    <glyph glyph-name="six" unicode="6" horiz-adv-x="661" 
d="M184.5 20.5q-68.5 30.5 -109 87.5t-40.5 133q0 38 11.5 69.5t24 52t39.5 59.5l191 258q1 2 5.5 7.5t11 9t14.5 3.5h159q9 0 14.5 -6.5t5.5 -15.5q0 -5 -5 -13l-130 -176q72 -8 130 -40t92 -85.5t34 -122.5q0 -76 -40.5 -133t-108.5 -87.5t-149 -30.5t-149.5 30.5z
M413 175q34 25 34 66t-34 66t-79 25t-79.5 -25t-34.5 -66t34.5 -66t79.5 -25t79 25z" />
    <glyph glyph-name="seven" unicode="7" horiz-adv-x="589" 
d="M354 540h-298q-11 0 -19 8t-8 19v106q0 11 8 19t19 8h478q11 0 19 -8t8 -19v-93q0 -16 -16 -51l-217 -505q-10 -24 -29 -24h-140q-10 0 -17 7t-7 17q0 5 3 12z" />
    <glyph glyph-name="eight" unicode="8" horiz-adv-x="686" 
d="M483.5 682q64.5 -28 102.5 -78t38 -114q0 -77 -54 -134q33 -28 51 -65.5t18 -80.5q0 -64 -39 -114t-106.5 -78t-150.5 -28t-150.5 28t-106.5 78t-39 114q0 87 68 146q-53 58 -53 134q0 64 38 114t102.5 78t140.5 28t140.5 -28zM413 443.5q26 19.5 26 48.5t-26 48.5
t-70 19.5t-70 -19.5t-26 -48.5t26 -48.5t70 -19.5t70 19.5zM425 159q29 19 29 49t-29 49t-82 19t-82 -19t-29 -49t29 -49t82 -19t82 19z" />
    <glyph glyph-name="nine" unicode="9" horiz-adv-x="647" 
d="M465.5 679.5q67.5 -30.5 108.5 -87t41 -131.5q0 -36 -10.5 -66.5t-23.5 -52t-39 -59.5l-190 -263q-1 -2 -5.5 -7.5t-11 -9t-14.5 -3.5h-159q-9 0 -14.5 6.5t-5.5 15.5q0 6 5 13l128 180q-67 9 -123 41t-89.5 85t-33.5 120q0 75 41 131.5t108.5 87t143.5 30.5t143.5 -30.5
zM246.5 525q-32.5 -25 -32.5 -64t32.5 -64t75.5 -25t75.5 25t32.5 64t-32.5 64t-75.5 25t-75.5 -25z" />
    <glyph glyph-name="zero.denominator" horiz-adv-x="381" 
d="M304.5 34.5q-39.5 -39.5 -114.5 -39.5t-113.5 39t-43.5 103q-1 13 -1 37q0 25 1 39q5 64 43.5 103t113.5 39t113.5 -39t43.5 -103q2 -28 2 -39q0 -13 -2 -37q-3 -63 -42.5 -102.5zM220 102q9 12 11 40q2 22 2 33t-2 33q-2 28 -11 40t-30 12t-30 -12t-11 -40
q-1 -11 -1 -33t1 -33q2 -28 11 -40t30 -12t30 12z" />
    <glyph glyph-name="one.denominator" horiz-adv-x="284" 
d="M236 6q-6 -6 -16 -6h-72q-10 0 -16 6t-6 16v177l-42 -32q-5 -4 -13 -4q-10 0 -18 9l-37 45q-5 7 -5 14q0 10 9 17l127 95q10 7 23 7h50q10 0 16 -6t6 -16v-306q0 -10 -6 -16z" />
    <glyph glyph-name="two.denominator" horiz-adv-x="358" 
d="M32 79.5q5 6.5 20 17.5q34 26 56 41q59 44 76.5 60.5t17.5 34.5q0 13 -7.5 20t-17.5 7q-14 0 -24 -18t-27 -18h-71q-9 0 -14 5t-4 14q3 47 41.5 79.5t98.5 32.5q64 0 102.5 -32.5t38.5 -84.5q0 -30 -9.5 -50.5t-30.5 -40t-66 -52.5h91q10 0 16 -6t6 -16v-51q0 -10 -6 -16
t-16 -6h-254q-10 0 -16 5t-6 15v45q0 8 5 14.5z" />
    <glyph glyph-name="three.denominator" horiz-adv-x="360" 
d="M309 270q-3 -5 -11 -13l-44 -43q40 -15 58 -35.5t18 -63.5q0 -52 -42.5 -86t-107.5 -34q-46 0 -81.5 14.5t-55 36.5t-21.5 43v2q0 7 6 12t11 5h85q8 0 14 -2.5t11 -5.5q8 -5 14 -7.5t17 -2.5q16 0 25 5t9 20q0 13 -9.5 19t-24.5 6h-55q-10 0 -16 6t-6 16v23q0 11 11 22
l53 48h-102q-10 0 -16 6t-6 16v51q0 10 6 16t16 6h225q10 0 16 -6t6 -16v-44q0 -9 -3 -14z" />
    <glyph glyph-name="four.denominator" horiz-adv-x="397" 
d="M295 350q10 0 16 -6t6 -16v-176h35q10 0 16 -6t6 -16v-51q0 -10 -6 -16t-16 -6h-35v-35q0 -10 -6 -16t-16 -6h-72q-10 0 -16 6t-6 16v35h-158q-10 0 -16 6t-6 16v50q0 14 12 30l134 173q13 18 30 18h98zM203 152v80l-62 -80h62z" />
    <glyph glyph-name="five.denominator" horiz-adv-x="354" 
d="M300 261q-6 -6 -16 -6h-137l-4 -40q14 7 25.5 10t33.5 3q51 0 87.5 -31.5t36.5 -80.5q0 -51 -40.5 -86t-110.5 -35q-55 0 -88.5 15.5t-47 37.5t-13.5 41q0 9 5.5 14t11.5 5h77q12 0 22 -8q7 -5 13.5 -7.5t19.5 -2.5q17 0 27 8t10 20t-9 20t-23 8q-15 0 -24.5 -6.5
t-14.5 -6.5h-74q-10 0 -16.5 7.5t-5.5 18.5l16 164q1 11 8 18.5t17 8.5h198q10 0 16 -6t6 -16v-51q0 -10 -6 -16z" />
    <glyph glyph-name="six.denominator" horiz-adv-x="362" 
d="M158 335q13 15 29 15h73q8 0 13.5 -6t5.5 -14t-10 -20l-54 -68q29 -2 58 -16t48.5 -41t19.5 -64q0 -57 -44 -91.5t-112 -34.5q-69 0 -113.5 33.5t-44.5 92.5q0 32 14 57.5t36 52.5zM216.5 92.5q11.5 9.5 11.5 28.5t-11.5 28.5t-31.5 9.5t-31.5 -9.5t-11.5 -28.5
t11.5 -28.5t31.5 -9.5t31.5 9.5z" />
    <glyph glyph-name="seven.denominator" horiz-adv-x="322" 
d="M295 250l-102 -226q-10 -24 -26 -24h-72q-9 0 -14.5 6t-5.5 15q0 7 4 15l99 219h-135q-10 0 -16 6t-6 16v51q0 10 6 16t16 6h235q10 0 16 -6t6 -16v-55q0 -13 -5 -23z" />
    <glyph glyph-name="eight.denominator" horiz-adv-x="368" 
d="M69 26.5q-39 31.5 -39 76.5q0 26 11.5 47t32.5 31q-32 21 -32 68q0 43 34.5 74.5t107.5 31.5t107.5 -31.5t34.5 -74.5q0 -47 -32 -68q21 -10 32.5 -31t11.5 -47q0 -45 -39 -76.5t-115 -31.5t-115 31.5zM157.5 267q-10.5 -8 -10.5 -21t11 -21t26 -8q16 0 26 7.5t10 21.5
q0 13 -10.5 21t-25.5 8q-16 0 -26.5 -8zM151.5 130.5q-12.5 -8.5 -12.5 -23.5q0 -16 13 -24t32 -8t32 8t13 24q0 15 -12.5 23.5t-32.5 8.5t-32.5 -8.5z" />
    <glyph glyph-name="nine.denominator" horiz-adv-x="362" 
d="M204 15q-13 -15 -29 -15h-73q-8 0 -13.5 6t-5.5 14t10 20l54 68q-29 2 -58 16t-48.5 41t-19.5 64q0 57 44 91.5t112 34.5q69 0 113.5 -33.5t44.5 -92.5q0 -32 -14 -57.5t-36 -52.5zM208.5 200.5q11.5 9.5 11.5 28.5t-11.5 28.5t-31.5 9.5t-31.5 -9.5t-11.5 -28.5
t11.5 -28.5t31.5 -9.5t31.5 9.5z" />
    <glyph glyph-name="zero.numerator" horiz-adv-x="381" 
d="M304.5 384.5q-39.5 -39.5 -114.5 -39.5t-113.5 39t-43.5 103q-1 13 -1 37q0 25 1 39q5 64 43.5 103t113.5 39t113.5 -39t43.5 -103q2 -28 2 -39q0 -13 -2 -37q-3 -63 -42.5 -102.5zM220 452q9 12 11 40q2 22 2 33t-2 33q-2 28 -11 40t-30 12t-30 -12t-11 -40
q-1 -11 -1 -33t1 -33q2 -28 11 -40t30 -12t30 12z" />
    <glyph glyph-name="one.numerator" horiz-adv-x="284" 
d="M236 356q-6 -6 -16 -6h-72q-10 0 -16 6t-6 16v177l-42 -32q-5 -4 -13 -4q-10 0 -18 9l-37 45q-5 7 -5 14q0 10 9 17l127 95q10 7 23 7h50q10 0 16 -6t6 -16v-306q0 -10 -6 -16z" />
    <glyph glyph-name="two.numerator" horiz-adv-x="358" 
d="M32 429.5q5 6.5 20 17.5q34 26 56 41q59 44 76.5 60.5t17.5 34.5q0 13 -7.5 20t-17.5 7q-14 0 -24 -18t-27 -18h-71q-9 0 -14 5t-4 14q3 47 41.5 79.5t98.5 32.5q64 0 102.5 -32.5t38.5 -84.5q0 -30 -9.5 -50.5t-30.5 -40t-66 -52.5h91q10 0 16 -6t6 -16v-51
q0 -10 -6 -16t-16 -6h-254q-10 0 -16 5t-6 15v45q0 8 5 14.5z" />
    <glyph glyph-name="three.numerator" horiz-adv-x="360" 
d="M309 620q-3 -5 -11 -13l-44 -43q40 -15 58 -35.5t18 -63.5q0 -52 -42.5 -86t-107.5 -34q-46 0 -81.5 14.5t-55 36.5t-21.5 43v2q0 7 6 12t11 5h85q8 0 14 -2.5t11 -5.5q8 -5 14 -7.5t17 -2.5q16 0 25 5t9 20q0 13 -9.5 19t-24.5 6h-55q-10 0 -16 6t-6 16v23q0 11 11 22
l53 48h-102q-10 0 -16 6t-6 16v51q0 10 6 16t16 6h225q10 0 16 -6t6 -16v-44q0 -9 -3 -14z" />
    <glyph glyph-name="four.numerator" horiz-adv-x="397" 
d="M295 700q10 0 16 -6t6 -16v-176h35q10 0 16 -6t6 -16v-51q0 -10 -6 -16t-16 -6h-35v-35q0 -10 -6 -16t-16 -6h-72q-10 0 -16 6t-6 16v35h-158q-10 0 -16 6t-6 16v50q0 14 12 30l134 173q13 18 30 18h98zM203 502v80l-62 -80h62z" />
    <glyph glyph-name="five.numerator" horiz-adv-x="354" 
d="M300 611q-6 -6 -16 -6h-137l-4 -40q14 7 25.5 10t33.5 3q51 0 87.5 -31.5t36.5 -80.5q0 -51 -40.5 -86t-110.5 -35q-55 0 -88.5 15.5t-47 37.5t-13.5 41q0 9 5.5 14t11.5 5h77q12 0 22 -8q7 -5 13.5 -7.5t19.5 -2.5q17 0 27 8t10 20t-9 20t-23 8q-15 0 -24.5 -6.5
t-14.5 -6.5h-74q-10 0 -16.5 7.5t-5.5 18.5l16 164q1 11 8 18.5t17 8.5h198q10 0 16 -6t6 -16v-51q0 -10 -6 -16z" />
    <glyph glyph-name="six.numerator" horiz-adv-x="362" 
d="M158 685q13 15 29 15h73q8 0 13.5 -6t5.5 -14t-10 -20l-54 -68q29 -2 58 -16t48.5 -41t19.5 -64q0 -57 -44 -91.5t-112 -34.5q-69 0 -113.5 33.5t-44.5 92.5q0 32 14 57.5t36 52.5zM216.5 442.5q11.5 9.5 11.5 28.5t-11.5 28.5t-31.5 9.5t-31.5 -9.5t-11.5 -28.5
t11.5 -28.5t31.5 -9.5t31.5 9.5z" />
    <glyph glyph-name="seven.numerator" horiz-adv-x="322" 
d="M295 600l-102 -226q-10 -24 -26 -24h-72q-9 0 -14.5 6t-5.5 15q0 7 4 15l99 219h-135q-10 0 -16 6t-6 16v51q0 10 6 16t16 6h235q10 0 16 -6t6 -16v-55q0 -13 -5 -23z" />
    <glyph glyph-name="eight.numerator" horiz-adv-x="368" 
d="M69 376.5q-39 31.5 -39 76.5q0 26 11.5 47t32.5 31q-32 21 -32 68q0 43 34.5 74.5t107.5 31.5t107.5 -31.5t34.5 -74.5q0 -47 -32 -68q21 -10 32.5 -31t11.5 -47q0 -45 -39 -76.5t-115 -31.5t-115 31.5zM157.5 617q-10.5 -8 -10.5 -21t11 -21t26 -8q16 0 26 7.5t10 21.5
q0 13 -10.5 21t-25.5 8q-16 0 -26.5 -8zM151.5 480.5q-12.5 -8.5 -12.5 -23.5q0 -16 13 -24t32 -8t32 8t13 24q0 15 -12.5 23.5t-32.5 8.5t-32.5 -8.5z" />
    <glyph glyph-name="nine.numerator" horiz-adv-x="362" 
d="M204 365q-13 -15 -29 -15h-73q-8 0 -13.5 6t-5.5 14t10 20l54 68q-29 2 -58 16t-48.5 41t-19.5 64q0 57 44 91.5t112 34.5q69 0 113.5 -33.5t44.5 -92.5q0 -32 -14 -57.5t-36 -52.5zM208.5 550.5q11.5 9.5 11.5 28.5t-11.5 28.5t-31.5 9.5t-31.5 -9.5t-11.5 -28.5
t11.5 -28.5t31.5 -9.5t31.5 9.5z" />
    <glyph glyph-name="zero.otlf" horiz-adv-x="660" 
d="M624 349q0 -61 -2 -88q-7 -119 -78.5 -195t-213.5 -76t-213.5 76t-78.5 195q-2 54 -2 88t2 90q7 119 78.5 195t213.5 76t213.5 -76t78.5 -195q2 -28 2 -90zM410 519.5q-24 30.5 -80 30.5t-80 -30.5t-27 -85.5q-2 -54 -2 -83q0 -27 2 -85q2 -55 26.5 -85.5t80.5 -30.5
t80.5 30.5t26.5 85.5q2 29 2 85t-2 83q-3 55 -27 85.5z" />
    <glyph glyph-name="one.otlf" horiz-adv-x="660" 
d="M73 8q-8 8 -8 19v106q0 11 8 19t19 8h170v304l-101 -76q-7 -6 -17 -6q-13 0 -21 11l-74 96q-5 6 -5 16q0 14 11 22l197 151q2 2 10.5 8t17.5 10t18 4h122q11 0 19 -8t8 -19v-513h150q11 0 19 -8t8 -19v-106q0 -11 -8 -19t-19 -8h-505q-11 0 -19 8z" />
    <glyph glyph-name="two.otlf" horiz-adv-x="660" 
d="M341 160h251q11 0 19 -8t8 -19v-106q0 -11 -8 -19t-19 -8h-528q-11 0 -19 8t-8 19v86q0 38 29 59l299 214q32 24 42.5 44.5t10.5 44.5q0 25 -17.5 50t-66.5 25q-34 0 -53.5 -13.5t-25 -25t-14.5 -35.5q-5 -13 -15 -18t-25 -5h-123q-9 0 -15.5 6.5t-6.5 15.5
q2 59 33 112.5t93 88t151 34.5q85 0 146 -32.5t92.5 -86t31.5 -116.5q0 -61 -27.5 -110.5t-94.5 -98.5z" />
    <glyph glyph-name="three.otlf" horiz-adv-x="660" 
d="M581 692q8 -8 8 -19v-106q0 -15 -20 -35l-121 -122q82 -20 129 -69t47 -124q0 -111 -77.5 -169t-218.5 -58q-91 0 -159 28t-104 73.5t-38 96.5q0 9 6.5 15.5t15.5 6.5h126q16 0 26 -5.5t23 -17.5q20 -18 41.5 -27.5t62.5 -9.5q50 0 80.5 17t30.5 50t-30.5 50t-80.5 17
h-83q-11 0 -19 8t-8 19v86q0 10 5.5 18t15.5 18l106 107h-261q-11 0 -19 8t-8 19v106q0 11 8 19t19 8h478q11 0 19 -8z" />
    <glyph glyph-name="four.otlf" horiz-adv-x="660" 
d="M360 8q-8 8 -8 19v102h-315q-11 0 -19 8t-8 19v106q0 26 13 43l299 377q9 11 16.5 14.5t20.5 3.5h151q11 0 19 -8t8 -19v-384h86q11 0 19 -8t8 -19v-106q0 -11 -8 -19t-19 -8h-86v-102q0 -11 -8 -19t-19 -8h-131q-11 0 -19 8zM357 473l-146 -184h146v184z" />
    <glyph glyph-name="five.otlf" horiz-adv-x="660" 
d="M403.5 173q30.5 23 30.5 64q0 34 -27 55.5t-72 21.5q-15 0 -27.5 -4t-30.5 -12q-18 -9 -26 -9h-156q-12 0 -20 8t-7 19l30 357q1 11 8.5 19t18.5 8h428q11 0 19 -8t8 -19v-106q0 -11 -8 -19t-19 -8h-291l-7 -89q42 23 93 23q78 0 139.5 -28t96.5 -81.5t35 -127.5
q0 -78 -38 -133.5t-104 -84.5t-149 -29q-88 0 -153 29.5t-100 78t-37 104.5q0 9 6.5 15.5t15.5 6.5h127q23 0 36 -16q21 -27 42.5 -42.5t62.5 -15.5q45 0 75.5 23z" />
    <glyph glyph-name="six.otlf" horiz-adv-x="660" 
d="M184.5 20.5q-68.5 30.5 -109 87.5t-40.5 133q0 38 11.5 69.5t24 52t39.5 59.5l191 258q1 2 5.5 7.5t11 9t14.5 3.5h159q9 0 14.5 -6.5t5.5 -15.5q0 -5 -5 -13l-130 -176q72 -8 130 -40t92 -85.5t34 -122.5q0 -76 -40.5 -133t-108.5 -87.5t-149 -30.5t-149.5 30.5z
M413 175q34 25 34 66t-34 66t-79 25t-79.5 -25t-34.5 -66t34.5 -66t79.5 -25t79 25z" />
    <glyph glyph-name="seven.otlf" horiz-adv-x="660" 
d="M390 540h-298q-11 0 -19 8t-8 19v106q0 11 8 19t19 8h478q11 0 19 -8t8 -19v-93q0 -16 -16 -51l-217 -505q-10 -24 -29 -24h-140q-10 0 -17 7t-7 17q0 5 3 12z" />
    <glyph glyph-name="eight.otlf" horiz-adv-x="660" 
d="M470.5 682q64.5 -28 102.5 -78t38 -114q0 -77 -54 -134q33 -28 51 -65.5t18 -80.5q0 -64 -39 -114t-106.5 -78t-150.5 -28t-150.5 28t-106.5 78t-39 114q0 87 68 146q-53 58 -53 134q0 64 38 114t102.5 78t140.5 28t140.5 -28zM400 443.5q26 19.5 26 48.5t-26 48.5
t-70 19.5t-70 -19.5t-26 -48.5t26 -48.5t70 -19.5t70 19.5zM412 159q29 19 29 49t-29 49t-82 19t-82 -19t-29 -49t29 -49t82 -19t82 19z" />
    <glyph glyph-name="nine.otlf" horiz-adv-x="660" 
d="M472.5 679.5q67.5 -30.5 108.5 -87t41 -131.5q0 -36 -10.5 -66.5t-23.5 -52t-39 -59.5l-190 -263q-1 -2 -5.5 -7.5t-11 -9t-14.5 -3.5h-159q-9 0 -14.5 6.5t-5.5 15.5q0 6 5 13l128 180q-67 9 -123 41t-89.5 85t-33.5 120q0 75 41 131.5t108.5 87t143.5 30.5t143.5 -30.5
zM253.5 525q-32.5 -25 -32.5 -64t32.5 -64t75.5 -25t75.5 25t32.5 64t-32.5 64t-75.5 25t-75.5 -25z" />
    <glyph glyph-name="fraction" unicode="&#x2044;" horiz-adv-x="160" 
d="M282.5 695.5q7.5 4.5 20.5 4.5h62q11 0 17.5 -5.5t6.5 -14.5q0 -6 -4 -11l-494 -650q-8 -10 -15.5 -14.5t-20.5 -4.5h-62q-11 0 -17.5 5.5t-6.5 14.5q0 6 4 11l494 650q8 10 15.5 14.5z" />
    <glyph glyph-name="onehalf" unicode="&#xbd;" horiz-adv-x="814" 
d="M600.5 695.5q7.5 4.5 20.5 4.5h62q11 0 17.5 -5.5t6.5 -14.5q0 -6 -4 -11l-494 -650q-8 -10 -15.5 -14.5t-20.5 -4.5h-62q-11 0 -17.5 5.5t-6.5 14.5q0 6 4 11l494 650q8 10 15.5 14.5zM251 356q-6 -6 -16 -6h-72q-10 0 -16 6t-6 16v177l-42 -32q-5 -4 -13 -4
q-10 0 -18 9l-37 45q-5 7 -5 14q0 10 9 17l127 95q10 7 23 7h50q10 0 16 -6t6 -16v-306q0 -10 -6 -16zM481 79.5q5 6.5 20 17.5q34 26 56 41q59 44 76.5 60.5t17.5 34.5q0 13 -7.5 20t-17.5 7q-14 0 -24 -18t-27 -18h-71q-9 0 -14 5t-4 14q3 47 41.5 79.5t98.5 32.5
q64 0 102.5 -32.5t38.5 -84.5q0 -30 -9.5 -50.5t-30.5 -40t-66 -52.5h91q10 0 16 -6t6 -16v-51q0 -10 -6 -16t-16 -6h-254q-10 0 -16 5t-6 15v45q0 8 5 14.5z" />
    <glyph glyph-name="uni2153" unicode="&#x2153;" horiz-adv-x="837" 
d="M600.5 695.5q7.5 4.5 20.5 4.5h62q11 0 17.5 -5.5t6.5 -14.5q0 -6 -4 -11l-494 -650q-8 -10 -15.5 -14.5t-20.5 -4.5h-62q-11 0 -17.5 5.5t-6.5 14.5q0 6 4 11l494 650q8 10 15.5 14.5zM251 356q-6 -6 -16 -6h-72q-10 0 -16 6t-6 16v177l-42 -32q-5 -4 -13 -4
q-10 0 -18 9l-37 45q-5 7 -5 14q0 10 9 17l127 95q10 7 23 7h50q10 0 16 -6t6 -16v-306q0 -10 -6 -16zM780 270q-3 -5 -11 -13l-44 -43q40 -15 58 -35.5t18 -63.5q0 -52 -42.5 -86t-107.5 -34q-46 0 -81.5 14.5t-55 36.5t-21.5 43v2q0 7 6 12t11 5h85q8 0 14 -2.5t11 -5.5
q8 -5 14 -7.5t17 -2.5q16 0 25 5t9 20q0 13 -9.5 19t-24.5 6h-55q-10 0 -16 6t-6 16v23q0 11 11 22l53 48h-102q-10 0 -16 6t-6 16v51q0 10 6 16t16 6h225q10 0 16 -6t6 -16v-44q0 -9 -3 -14z" />
    </font>
</defs>
</svg>
